  0
SECTION
  2
HEADER
  9
$ACADVER
  1
AC1015
  9
$ACADMAINTVER
 70
     6
  9
$DWGCODEPAGE
  3
ANSI_1252
  9
$INSBASE
 10
0.0
 20
0.0
 30
0.0
  9
$EXTMIN
 10
-297.0000000000002
 20
0.0
 30
0.0
  9
$EXTMAX
 10
0.0
 20
210.0000000000001
 30
0.0
  9
$LIMMIN
 10
0.0
 20
0.0
  9
$LIMMAX
 10
12.0
 20
9.0
  9
$ORTHOMODE
 70
     0
  9
$REGENMODE
 70
     1
  9
$FILLMODE
 70
     1
  9
$QTEXTMODE
 70
     0
  9
$MIRRTEXT
 70
     1
  9
$LTSCALE
 40
1.0
  9
$ATTMODE
 70
     1
  9
$TEXTSIZE
 40
0.2
  9
$TRACEWID
 40
0.05
  9
$TEXTSTYLE
  7
Standard
  9
$CLAYER
  8
0
  9
$CELTYPE
  6
ByLayer
  9
$CECOLOR
 62
   256
  9
$CELTSCALE
 40
1.0
  9
$DISPSILH
 70
     0
  9
$DIMSCALE
 40
1.0
  9
$DIMASZ
 40
0.18
  9
$DIMEXO
 40
0.0625
  9
$DIMDLI
 40
0.38
  9
$DIMRND
 40
0.0
  9
$DIMDLE
 40
0.0
  9
$DIMEXE
 40
0.18
  9
$DIMTP
 40
0.0
  9
$DIMTM
 40
0.0
  9
$DIMTXT
 40
0.18
  9
$DIMCEN
 40
0.09
  9
$DIMTSZ
 40
0.0
  9
$DIMTOL
 70
     0
  9
$DIMLIM
 70
     0
  9
$DIMTIH
 70
     1
  9
$DIMTOH
 70
     1
  9
$DIMSE1
 70
     0
  9
$DIMSE2
 70
     0
  9
$DIMTAD
 70
     0
  9
$DIMZIN
 70
     0
  9
$DIMBLK
  1

  9
$DIMASO
 70
     1
  9
$DIMSHO
 70
     1
  9
$DIMPOST
  1

  9
$DIMAPOST
  1

  9
$DIMALT
 70
     0
  9
$DIMALTD
 70
     2
  9
$DIMALTF
 40
25.4
  9
$DIMLFAC
 40
1.0
  9
$DIMTOFL
 70
     0
  9
$DIMTVP
 40
0.0
  9
$DIMTIX
 70
     0
  9
$DIMSOXD
 70
     0
  9
$DIMSAH
 70
     0
  9
$DIMBLK1
  1

  9
$DIMBLK2
  1

  9
$DIMSTYLE
  2
Standard
  9
$DIMCLRD
 70
     0
  9
$DIMCLRE
 70
     0
  9
$DIMCLRT
 70
     0
  9
$DIMTFAC
 40
1.0
  9
$DIMGAP
 40
0.09
  9
$DIMJUST
 70
     0
  9
$DIMSD1
 70
     0
  9
$DIMSD2
 70
     0
  9
$DIMTOLJ
 70
     1
  9
$DIMTZIN
 70
     0
  9
$DIMALTZ
 70
     0
  9
$DIMALTTZ
 70
     0
  9
$DIMUPT
 70
     0
  9
$DIMDEC
 70
     4
  9
$DIMTDEC
 70
     4
  9
$DIMALTU
 70
     2
  9
$DIMALTTD
 70
     2
  9
$DIMTXSTY
  7
Standard
  9
$DIMAUNIT
 70
     0
  9
$DIMADEC
 70
     0
  9
$DIMALTRND
 40
0.0
  9
$DIMAZIN
 70
     0
  9
$DIMDSEP
 70
    46
  9
$DIMATFIT
 70
     3
  9
$DIMFRAC
 70
     0
  9
$DIMLDRBLK
  1

  9
$DIMLUNIT
 70
     2
  9
$DIMLWD
 70
    -2
  9
$DIMLWE
 70
    -2
  9
$DIMTMOVE
 70
     0
  9
$LUNITS
 70
     2
  9
$LUPREC
 70
     4
  9
$SKETCHINC
 40
0.1
  9
$FILLETRAD
 40
0.5
  9
$AUNITS
 70
     0
  9
$AUPREC
 70
     0
  9
$MENU
  1
.
  9
$ELEVATION
 40
0.0
  9
$PELEVATION
 40
0.0
  9
$THICKNESS
 40
0.0
  9
$LIMCHECK
 70
     0
  9
$CHAMFERA
 40
0.5
  9
$CHAMFERB
 40
0.5
  9
$CHAMFERC
 40
1.0
  9
$CHAMFERD
 40
0.0
  9
$SKPOLY
 70
     0
  9
$TDCREATE
 40
2456997.594665695
  9
$TDUCREATE
 40
2456997.552999028
  9
$TDUPDATE
 40
2456997.59466588
  9
$TDUUPDATE
 40
2456997.552999213
  9
$TDINDWG
 40
0.0000000116
  9
$TDUSRTIMER
 40
0.0000000116
  9
$USRTIMER
 70
     1
  9
$ANGBASE
 50
0.0
  9
$ANGDIR
 70
     0
  9
$PDMODE
 70
     0
  9
$PDSIZE
 40
0.0
  9
$PLINEWID
 40
0.0
  9
$SPLFRAME
 70
     0
  9
$SPLINETYPE
 70
     6
  9
$SPLINESEGS
 70
     8
  9
$HANDSEED
  5
21D
  9
$SURFTAB1
 70
     6
  9
$SURFTAB2
 70
     6
  9
$SURFTYPE
 70
     6
  9
$SURFU
 70
     6
  9
$SURFV
 70
     6
  9
$UCSBASE
  2

  9
$UCSNAME
  2

  9
$UCSORG
 10
0.0
 20
0.0
 30
0.0
  9
$UCSXDIR
 10
1.0
 20
0.0
 30
0.0
  9
$UCSYDIR
 10
0.0
 20
1.0
 30
0.0
  9
$UCSORTHOREF
  2

  9
$UCSORTHOVIEW
 70
     0
  9
$UCSORGTOP
 10
0.0
 20
0.0
 30
0.0
  9
$UCSORGBOTTOM
 10
0.0
 20
0.0
 30
0.0
  9
$UCSORGLEFT
 10
0.0
 20
0.0
 30
0.0
  9
$UCSORGRIGHT
 10
0.0
 20
0.0
 30
0.0
  9
$UCSORGFRONT
 10
0.0
 20
0.0
 30
0.0
  9
$UCSORGBACK
 10
0.0
 20
0.0
 30
0.0
  9
$PUCSBASE
  2

  9
$PUCSNAME
  2

  9
$PUCSORG
 10
0.0
 20
0.0
 30
0.0
  9
$PUCSXDIR
 10
1.0
 20
0.0
 30
0.0
  9
$PUCSYDIR
 10
0.0
 20
1.0
 30
0.0
  9
$PUCSORTHOREF
  2

  9
$PUCSORTHOVIEW
 70
     0
  9
$PUCSORGTOP
 10
0.0
 20
0.0
 30
0.0
  9
$PUCSORGBOTTOM
 10
0.0
 20
0.0
 30
0.0
  9
$PUCSORGLEFT
 10
0.0
 20
0.0
 30
0.0
  9
$PUCSORGRIGHT
 10
0.0
 20
0.0
 30
0.0
  9
$PUCSORGFRONT
 10
0.0
 20
0.0
 30
0.0
  9
$PUCSORGBACK
 10
0.0
 20
0.0
 30
0.0
  9
$USERI1
 70
     0
  9
$USERI2
 70
     0
  9
$USERI3
 70
     0
  9
$USERI4
 70
     0
  9
$USERI5
 70
     0
  9
$USERR1
 40
18.1
  9
$USERR2
 40
0.0
  9
$USERR3
 40
0.0
  9
$USERR4
 40
0.0
  9
$USERR5
 40
0.0
  9
$WORLDVIEW
 70
     1
  9
$SHADEDGE
 70
     3
  9
$SHADEDIF
 70
    70
  9
$TILEMODE
 70
     1
  9
$MAXACTVP
 70
    64
  9
$PINSBASE
 10
0.0
 20
0.0
 30
0.0
  9
$PLIMCHECK
 70
     0
  9
$PEXTMIN
 10
1.00000000000000E+20
 20
1.00000000000000E+20
 30
1.00000000000000E+20
  9
$PEXTMAX
 10
-1.00000000000000E+20
 20
-1.00000000000000E+20
 30
-1.00000000000000E+20
  9
$PLIMMIN
 10
0.0
 20
0.0
  9
$PLIMMAX
 10
12.0
 20
9.0
  9
$UNITMODE
 70
     0
  9
$VISRETAIN
 70
     1
  9
$PLINEGEN
 70
     0
  9
$PSLTSCALE
 70
     1
  9
$TREEDEPTH
 70
  3020
  9
$CMLSTYLE
  2
Standard
  9
$CMLJUST
 70
     0
  9
$CMLSCALE
 40
1.0
  9
$PROXYGRAPHICS
 70
     1
  9
$MEASUREMENT
 70
     1
  9
$CELWEIGHT
370
    -1
  9
$ENDCAPS
280
     0
  9
$JOINSTYLE
280
     0
  9
$LWDISPLAY
290
     0
  9
$INSUNITS
 70
     4
  9
$HYPERLINKBASE
  1

  9
$STYLESHEET
  1

  9
$XEDIT
290
     1
  9
$CEPSNTYPE
380
     0
  9
$PSTYLEMODE
290
     1
  9
$FINGERPRINTGUID
  2
{58772793-5AF7-4AEF-BE65-658685352054}
  9
$VERSIONGUID
  2
{FAEB1C32-E019-11D5-929B-00C0DF256EC4}
  9
$EXTNAMES
290
     1
  9
$PSVPSCALE
 40
0.0
  9
$OLESTARTUP
290
     0
  0
ENDSEC
  0
SECTION
  2
CLASSES
  0
CLASS
  1
ACDBDICTIONARYWDFLT
  2
AcDbDictionaryWithDefault
  3
ObjectDBX Classes
 90
        0
280
     0
281
     0
  0
CLASS
  1
VISUALSTYLE
  2
AcDbVisualStyle
  3
ObjectDBX Classes
 90
     4095
280
     0
281
     0
  0
CLASS
  1
MATERIAL
  2
AcDbMaterial
  3
ObjectDBX Classes
 90
     1153
280
     0
281
     0
  0
CLASS
  1
DICTIONARYVAR
  2
AcDbDictionaryVar
  3
ObjectDBX Classes
 90
        0
280
     0
281
     0
  0
CLASS
  1
ACDBPLACEHOLDER
  2
AcDbPlaceHolder
  3
ObjectDBX Classes
 90
        0
280
     0
281
     0
  0
CLASS
  1
LAYOUT
  2
AcDbLayout
  3
ObjectDBX Classes
 90
        0
280
     0
281
     0
  0
ENDSEC
  0
SECTION
  2
TABLES
  0
TABLE
  2
VPORT
  5
8
330
0
100
AcDbSymbolTable
 70
     1
  0
VPORT
  5
29
330
8
100
AcDbSymbolTableRecord
100
AcDbViewportTableRecord
  2
*Active
 70
     0
 10
0.0
 20
0.0
 11
1.0
 21
1.0
 12
-148.5000000000001
 22
105.0000000000001
 13
0.0
 23
0.0
 14
0.5
 24
0.5
 15
0.5
 25
0.5
 16
0.0
 26
0.0
 36
1.0
 17
0.0
 27
0.0
 37
0.0
 40
231.0000000000001
 41
1.60267857142857
 42
50.0
 43
0.0
 44
0.0
 50
0.0
 51
0.0
 71
     0
 72
   100
 73
     1
 74
     3
 75
     0
 76
     0
 77
     0
 78
     0
281
     0
 65
     1
110
0.0
120
0.0
130
0.0
111
1.0
121
0.0
131
0.0
112
0.0
122
1.0
132
0.0
 79
     0
146
0.0
  0
ENDTAB
  0
TABLE
  2
LTYPE
  5
5
330
0
100
AcDbSymbolTable
 70
     8
  0
LTYPE
  5
14
330
5
100
AcDbSymbolTableRecord
100
AcDbLinetypeTableRecord
  2
ByBlock
 70
     0
  3

 72
    65
 73
     0
 40
0.0
  0
LTYPE
  5
15
330
5
100
AcDbSymbolTableRecord
100
AcDbLinetypeTableRecord
  2
ByLayer
 70
     0
  3

 72
    65
 73
     0
 40
0.0
  0
LTYPE
  5
16
330
5
100
AcDbSymbolTableRecord
100
AcDbLinetypeTableRecord
  2
Continuous
 70
     0
  3
Solid line
 72
    65
 73
     0
 40
0.0
  0
LTYPE
  5
3F
330
5
100
AcDbSymbolTableRecord
100
AcDbLinetypeTableRecord
  2
DASHED
 70
     0
  3
Dashed
 72
    65
 73
     2
 40
15.0
 49
7.0
 74
     0
 49
-8.0
 74
     0
  0
LTYPE
  5
40
330
5
100
AcDbSymbolTableRecord
100
AcDbLinetypeTableRecord
  2
DOTTED
 70
     0
  3
Dotted
 72
    65
 73
     2
 40
1.0
 49
0.0
 74
     0
 49
-1.0
 74
     0
  0
LTYPE
  5
41
330
5
100
AcDbSymbolTableRecord
100
AcDbLinetypeTableRecord
  2
DOT_CENTER
 70
     0
  3
Dot_Center
 72
    65
 73
     4
 40
14.0
 49
12.0
 74
     0
 49
-1.0
 74
     0
 49
0.0
 74
     0
 49
-1.0
 74
     0
  0
LTYPE
  5
42
330
5
100
AcDbSymbolTableRecord
100
AcDbLinetypeTableRecord
  2
LONG_DASHED
 70
     0
  3
Long_Dashed
 72
    65
 73
     2
 40
15.0
 49
10.0
 74
     0
 49
-5.0
 74
     0
  0
LTYPE
  5
43
330
5
100
AcDbSymbolTableRecord
100
AcDbLinetypeTableRecord
  2
DASH_CENTER
 70
     0
  3
Dash_Center
 72
    65
 73
     4
 40
14.0
 49
11.0
 74
     0
 49
-1.0
 74
     0
 49
1.0
 74
     0
 49
-1.0
 74
     0
  0
LTYPE
  5
44
330
5
100
AcDbSymbolTableRecord
100
AcDbLinetypeTableRecord
  2
PHANTOM
 70
     0
  3
Phantom
 72
    65
 73
     6
 40
13.0
 49
10.0
 74
     0
 49
-1.0
 74
     0
 49
0.0
 74
     0
 49
-1.0
 74
     0
 49
0.0
 74
     0
 49
-1.0
 74
     0
  0
LTYPE
  5
45
330
5
100
AcDbSymbolTableRecord
100
AcDbLinetypeTableRecord
  2
CENTER_DASH_DASH
 70
     0
  3
Center_Dash_Dash
 72
    65
 73
     6
 40
14.0
 49
9.0
 74
     0
 49
-1.0
 74
     0
 49
1.0
 74
     0
 49
-1.0
 74
     0
 49
1.0
 74
     0
 49
-1.0
 74
     0
  0
ENDTAB
  0
TABLE
  2
LAYER
  5
2
330
0
100
AcDbSymbolTable
 70
     2
  0
LAYER
  5
10
330
2
100
AcDbSymbolTableRecord
100
AcDbLayerTableRecord
  2
0
 70
     0
 62
     7
  6
Continuous
370
    -3
390
F
  0
LAYER
  5
46
330
2
100
AcDbSymbolTableRecord
100
AcDbLayerTableRecord
  2
1
 70
     0
 62
     7
  6
Continuous
370
    -3
390
F
  0
ENDTAB
  0
TABLE
  2
STYLE
  5
3
330
0
100
AcDbSymbolTable
 70
     3
  0
STYLE
  5
11
330
3
100
AcDbSymbolTableRecord
100
AcDbTextStyleTableRecord
  2
Standard
 70
     0
 40
0.0
 41
1.0
 50
0.0
 71
     0
 42
0.2
  3
txt
  4

  0
STYLE
  5
9A
330
3
100
AcDbSymbolTableRecord
100
AcDbTextStyleTableRecord
  2
CONVERTER_11
 70
     0
 40
0.0
 41
1.2
 50
0.0
 71
     0
 42
0.2
  3
ARIAL.TTF
  4

  0
STYLE
  5
1A6
330
3
100
AcDbSymbolTableRecord
100
AcDbTextStyleTableRecord
  2
CONVERTER_12
 70
     0
 40
0.0
 41
0.95
 50
0.0
 71
     0
 42
0.2
  3
simplex.shx
  4

  0
ENDTAB
  0
TABLE
  2
VIEW
  5
6
330
0
100
AcDbSymbolTable
 70
     0
  0
ENDTAB
  0
TABLE
  2
UCS
  5
7
330
0
100
AcDbSymbolTable
 70
     0
  0
ENDTAB
  0
TABLE
  2
APPID
  5
9
330
0
100
AcDbSymbolTable
 70
     1
  0
APPID
  5
12
330
9
100
AcDbSymbolTableRecord
100
AcDbRegAppTableRecord
  2
ACAD
 70
     0
  0
ENDTAB
  0
TABLE
  2
DIMSTYLE
  5
A
330
0
100
AcDbSymbolTable
 70
     8
100
AcDbDimStyleTable
  0
DIMSTYLE
105
27
330
A
100
AcDbSymbolTableRecord
100
AcDbDimStyleTableRecord
  2
Standard
 70
     0
178
     0
340
11
  0
DIMSTYLE
105
1AA
102
{ACAD_REACTORS
330
1AB
102
}
330
A
100
AcDbSymbolTableRecord
100
AcDbDimStyleTableRecord
  2
ME10_DIM_10
 70
     0
 41
3.0
 42
0.5
 44
1.0
 73
     0
 74
     0
 77
     1
 78
     8
140
3.0
147
2.0
172
     1
173
     1
174
     1
175
     1
176
     2
177
     2
271
     2
178
     4
271
     2
340
1A6
  0
DIMSTYLE
105
1B5
102
{ACAD_REACTORS
330
1B6
102
}
330
A
100
AcDbSymbolTableRecord
100
AcDbDimStyleTableRecord
  2
ME10_DIM_11
 70
     0
  3
Pg<>
 41
3.0
 42
0.5
 44
1.0
 73
     0
 74
     0
 77
     1
 78
     8
140
3.0
147
2.0
172
     1
173
     1
174
     1
175
     1
176
     2
177
     2
271
     2
178
     4
271
     2
340
1A6
  0
DIMSTYLE
105
1C0
102
{ACAD_REACTORS
330
1C1
102
}
330
A
100
AcDbSymbolTableRecord
100
AcDbDimStyleTableRecord
  2
ME10_DIM_12
 70
     0
  3
Pg<>
 41
3.0
 42
0.5
 44
1.0
 73
     0
 74
     0
 77
     1
 78
     8
140
3.0
147
2.0
172
     1
173
     1
174
     1
175
     1
176
     2
177
     2
271
     2
178
     4
271
     2
340
1A6
  0
DIMSTYLE
105
1CB
102
{ACAD_REACTORS
330
1CC
102
}
330
A
100
AcDbSymbolTableRecord
100
AcDbDimStyleTableRecord
  2
ME10_DIM_13
 70
     0
 41
3.0
 42
0.5
 44
1.0
 73
     0
 74
     0
 77
     1
 78
     8
140
3.0
147
2.0
172
     1
173
     1
174
     1
175
     1
176
     2
177
     2
271
     2
178
     4
271
     2
340
1A6
  0
DIMSTYLE
105
1D6
102
{ACAD_REACTORS
330
1D7
102
}
330
A
100
AcDbSymbolTableRecord
100
AcDbDimStyleTableRecord
  2
ME10_DIM_14
 70
     0
 41
3.0
 42
0.5
 44
1.0
 73
     0
 74
     0
 77
     1
 78
     8
140
3.0
147
2.0
172
     1
173
     1
174
     1
175
     1
176
     2
177
     2
271
     2
178
     4
271
     2
340
1A6
  0
DIMSTYLE
105
1E1
102
{ACAD_REACTORS
330
1E2
102
}
330
A
100
AcDbSymbolTableRecord
100
AcDbDimStyleTableRecord
  2
ME10_DIM_15
 70
     0
 41
3.0
 42
0.5
 44
1.0
 73
     0
 74
     0
 77
     1
 78
     8
140
3.0
147
2.0
172
     1
173
     1
174
     1
175
     1
176
     2
177
     2
271
     2
178
     4
271
     2
340
1A6
  0
DIMSTYLE
105
1EC
102
{ACAD_REACTORS
330
1ED
102
}
330
A
100
AcDbSymbolTableRecord
100
AcDbDimStyleTableRecord
  2
ME10_DIM_16
 70
     0
 41
3.0
 42
0.5
 44
1.0
 73
     0
 74
     0
 77
     1
 78
     8
140
3.0
147
2.0
172
     1
173
     1
174
     1
175
     1
176
     2
177
     2
271
     2
178
     4
271
     2
340
1A6
  0
ENDTAB
  0
TABLE
  2
BLOCK_RECORD
  5
1
330
0
100
AcDbSymbolTable
 70
    10
  0
BLOCK_RECORD
  5
1F
330
1
100
AcDbSymbolTableRecord
100
AcDbBlockTableRecord
  2
*Model_Space
340
22
  0
BLOCK_RECORD
  5
1B
330
1
100
AcDbSymbolTableRecord
100
AcDbBlockTableRecord
  2
*Paper_Space
340
1E
  0
BLOCK_RECORD
  5
23
330
1
100
AcDbSymbolTableRecord
100
AcDbBlockTableRecord
  2
*Paper_Space0
340
26
  0
BLOCK_RECORD
  5
47
330
1
100
AcDbSymbolTableRecord
100
AcDbBlockTableRecord
  2
_formato_A4
340
0
102
{BLKREFS
331
4B
102
}
  0
BLOCK_RECORD
  5
4A
330
1
100
AcDbSymbolTableRecord
100
AcDbBlockTableRecord
  2
A4_oriz
340
0
102
{BLKREFS
331
4E
102
}
  0
BLOCK_RECORD
  5
1A0
330
1
100
AcDbSymbolTableRecord
100
AcDbBlockTableRecord
  2
*D3
340
0
  0
BLOCK_RECORD
  5
1AC
330
1
100
AcDbSymbolTableRecord
100
AcDbBlockTableRecord
  2
*D4
340
0
  0
BLOCK_RECORD
  5
1B7
330
1
100
AcDbSymbolTableRecord
100
AcDbBlockTableRecord
  2
*D5
340
0
  0
BLOCK_RECORD
  5
1C2
330
1
100
AcDbSymbolTableRecord
100
AcDbBlockTableRecord
  2
*D6
340
0
  0
BLOCK_RECORD
  5
1CD
330
1
100
AcDbSymbolTableRecord
100
AcDbBlockTableRecord
  2
*D7
340
0
  0
BLOCK_RECORD
  5
1D8
330
1
100
AcDbSymbolTableRecord
100
AcDbBlockTableRecord
  2
*D8
340
0
  0
BLOCK_RECORD
  5
1E3
330
1
100
AcDbSymbolTableRecord
100
AcDbBlockTableRecord
  2
*D9
340
0
  0
ENDTAB
  0
ENDSEC
  0
SECTION
  2
BLOCKS
  0
BLOCK
  5
20
330
1F
100
AcDbEntity
  8
0
100
AcDbBlockBegin
  2
*Model_Space
 70
     0
 10
0.0
 20
0.0
 30
0.0
  3
*Model_Space
  1

  0
ENDBLK
  5
21
330
1F
100
AcDbEntity
  8
0
100
AcDbBlockEnd
  0
BLOCK
  5
1C
330
1B
100
AcDbEntity
 67
     1
  8
0
100
AcDbBlockBegin
  2
*Paper_Space
 70
     0
 10
0.0
 20
0.0
 30
0.0
  3
*Paper_Space
  1

  0
ENDBLK
  5
1D
330
1B
100
AcDbEntity
 67
     1
  8
0
100
AcDbBlockEnd
  0
BLOCK
  5
24
330
23
100
AcDbEntity
  8
0
100
AcDbBlockBegin
  2
*Paper_Space0
 70
     0
 10
0.0
 20
0.0
 30
0.0
  3
*Paper_Space0
  1

  0
ENDBLK
  5
25
330
23
100
AcDbEntity
  8
0
100
AcDbBlockEnd
  0
BLOCK
  5
48
330
47
100
AcDbEntity
  8
0
100
AcDbBlockBegin
  2
_formato_A4
 70
     0
 10
0.0
 20
0.0
 30
0.0
  3
_formato_A4
  1

  0
LINE
  5
4F
330
47
100
AcDbEntity
  8
1
  6
Continuous
 62
     7
100
AcDbLine
 10
-49.00000000000006
 20
20.0
 30
0.0
 11
-49.00000000000006
 21
5.0
 31
0.0
  0
LINE
  5
50
330
47
100
AcDbEntity
  8
1
  6
Continuous
 62
     7
100
AcDbLine
 10
-31.6473986225152
 20
20.0
 30
0.0
 11
-31.6473986225152
 21
5.0
 31
0.0
  0
LINE
  5
51
330
47
100
AcDbEntity
  8
1
  6
Continuous
 62
     7
100
AcDbLine
 10
-159.0000000000001
 20
20.0
 30
0.0
 11
-159.0000000000001
 21
5.0
 31
0.0
  0
LINE
  5
52
330
47
100
AcDbEntity
  8
1
  6
Continuous
 62
     7
100
AcDbLine
 10
-189.0000000000001
 20
12.5
 30
0.0
 11
-159.0000000000001
 21
12.5
 31
0.0
  0
LINE
  5
53
330
47
100
AcDbEntity
  8
1
  6
Continuous
 62
     7
100
AcDbLine
 10
-148.5000000000001
 20
210.0000000000001
 30
0.0
 11
-148.5000000000001
 21
195.0000000000001
 31
0.0
  0
LINE
  5
54
330
47
100
AcDbEntity
  8
1
  6
Continuous
 62
     7
100
AcDbLine
 10
-297.0000000000002
 20
0.0
 30
0.0
 11
0.0
 21
0.0
 31
0.0
  0
LINE
  5
55
330
47
100
AcDbEntity
  8
1
  6
Continuous
 62
     7
100
AcDbLine
 10
-297.0000000000002
 20
210.0000000000001
 30
0.0
 11
-297.0000000000002
 21
0.0
 31
0.0
  0
LINE
  5
56
330
47
100
AcDbEntity
  8
1
  6
Continuous
 62
     7
100
AcDbLine
 10
0.0
 20
210.0000000000001
 30
0.0
 11
-297.0000000000002
 21
210.0000000000001
 31
0.0
  0
LINE
  5
57
330
47
100
AcDbEntity
  8
1
  6
Continuous
 62
     7
100
AcDbLine
 10
0.0
 20
0.0
 30
0.0
 11
0.0
 21
210.0000000000001
 31
0.0
  0
LINE
  5
58
330
47
100
AcDbEntity
  8
1
  6
Continuous
 62
     7
100
AcDbLine
 10
-292.0000000000003
 20
5.0
 30
0.0
 11
-5.0
 21
5.0
 31
0.0
  0
LINE
  5
59
330
47
100
AcDbEntity
  8
1
  6
Continuous
 62
     7
100
AcDbLine
 10
-5.0
 20
5.0
 30
0.0
 11
-5.0
 21
189.0
 31
0.0
  0
LINE
  5
5A
330
47
100
AcDbEntity
  8
1
  6
Continuous
 62
     7
100
AcDbLine
 10
-5.0
 20
189.0
 30
0.0
 11
-292.0000000000003
 21
189.0
 31
0.0
  0
LINE
  5
5B
102
{ACAD_REACTORS
330
A2
102
}
330
47
100
AcDbEntity
  8
1
  6
Continuous
 62
     7
100
AcDbLine
 10
-15.99036597792406
 20
10.0774998398326
 30
0.0
 11
-15.99036597792406
 21
14.9225001601674
 31
0.0
  0
LINE
  5
5C
102
{ACAD_REACTORS
330
9F
102
}
330
47
100
AcDbEntity
  8
1
  6
Continuous
 62
     7
100
AcDbLine
 10
-17.32369931125709
 20
12.5
 30
0.0
 11
-17.32369931125709
 21
14.23205080756881
 31
0.0
  0
LINE
  5
5D
102
{ACAD_REACTORS
330
9F
102
}
330
47
100
AcDbEntity
  8
1
  6
Continuous
 62
     7
100
AcDbLine
 10
-17.32369931125709
 20
14.23205080756881
 30
0.0
 11
-18.17936174396004
 21
12.75
 31
0.0
  0
LINE
  5
5E
102
{ACAD_REACTORS
330
9F
102
}
330
47
100
AcDbEntity
  8
1
  6
Continuous
 62
     7
100
AcDbLine
 10
-18.46803687855504
 20
12.75
 30
0.0
 11
-19.32369931125709
 21
14.23205080756881
 31
0.0
  0
LINE
  5
5F
102
{ACAD_REACTORS
330
9F
102
}
330
47
100
AcDbEntity
  8
1
  6
Continuous
 62
     7
100
AcDbLine
 10
-19.32369931125709
 20
14.23205080756881
 30
0.0
 11
-19.32369931125709
 21
12.5
 31
0.0
  0
LINE
  5
60
330
47
100
AcDbEntity
  8
1
  6
Continuous
 62
     7
100
AcDbLine
 10
-26.74013458639911
 20
12.64436426434131
 30
0.0
 11
-18.32369931125709
 21
17.5
 31
0.0
  0
LINE
  5
61
330
47
100
AcDbEntity
  8
1
  6
Continuous
 62
     7
100
AcDbLine
 10
-18.32369931125709
 20
17.5
 30
0.0
 11
-9.90726403611609
 21
12.64436426434131
 31
0.0
  0
LINE
  5
62
330
47
100
AcDbEntity
  8
1
  6
Continuous
 62
     7
100
AcDbLine
 10
-9.90726403611609
 20
12.35563573565861
 30
0.0
 11
-18.32369931125709
 21
7.5
 31
0.0
  0
LINE
  5
63
330
47
100
AcDbEntity
  8
1
  6
Continuous
 62
     7
100
AcDbLine
 10
-18.32369931125709
 20
7.5
 30
0.0
 11
-26.74013458639911
 21
12.35563573565861
 31
0.0
  0
LINE
  5
64
102
{ACAD_REACTORS
330
9F
102
}
330
47
100
AcDbEntity
  8
1
  6
Continuous
 62
     7
100
AcDbLine
 10
-19.99036597792406
 20
12.5
 30
0.0
 11
-19.99036597792406
 21
15.7312173120346
 31
0.0
  0
LINE
  5
65
102
{ACAD_REACTORS
330
9F
102
}
330
47
100
AcDbEntity
  8
1
  6
Continuous
 62
     7
100
AcDbLine
 10
-19.49593229430116
 20
15.86370041827232
 30
0.0
 11
-18.32369931125709
 21
13.83333333333331
 31
0.0
  0
LINE
  5
66
102
{ACAD_REACTORS
330
9F
102
}
330
47
100
AcDbEntity
  8
1
  6
Continuous
 62
     7
100
AcDbLine
 10
-19.99036597792406
 20
12.5
 30
0.0
 11
-19.99036597792406
 21
10.84758507263291
 31
0.0
  0
LINE
  5
67
102
{ACAD_REACTORS
330
9F
102
}
330
47
100
AcDbEntity
  8
1
  6
Continuous
 62
     7
100
AcDbLine
 10
-19.32369931125709
 20
10.84758507263291
 30
0.0
 11
-19.32369931125709
 21
12.5
 31
0.0
  0
LINE
  5
68
102
{ACAD_REACTORS
330
9F
102
}
330
47
100
AcDbEntity
  8
1
  6
Continuous
 62
     7
100
AcDbLine
 10
-17.32369931125709
 20
12.5
 30
0.0
 11
-17.32369931125709
 21
9.3082690706018
 31
0.0
  0
LINE
  5
69
102
{ACAD_REACTORS
330
9F
102
}
330
47
100
AcDbEntity
  8
1
  6
Continuous
 62
     7
100
AcDbLine
 10
-16.65703264459103
 20
9.3082690706018
 30
0.0
 11
-16.65703264459103
 21
15.7312173120346
 31
0.0
  0
LINE
  5
6A
102
{ACAD_REACTORS
330
9F
102
}
330
47
100
AcDbEntity
  8
1
  6
Continuous
 62
     7
100
AcDbLine
 10
-17.15146632821416
 20
15.86370041827232
 30
0.0
 11
-18.32369931125709
 21
13.83333333333331
 31
0.0
  0
LINE
  5
6B
102
{ACAD_REACTORS
330
A0
102
}
330
47
100
AcDbEntity
  8
1
  6
Continuous
 62
     7
100
AcDbLine
 10
-21.32369931125709
 20
10.27002114803261
 30
0.0
 11
-21.32369931125709
 21
14.9225001601674
 31
0.0
  0
LINE
  5
6C
102
{ACAD_REACTORS
330
A0
102
}
330
47
100
AcDbEntity
  8
1
  6
Continuous
 62
     7
100
AcDbLine
 10
-20.65703264459103
 20
14.9225001601674
 30
0.0
 11
-20.65703264459103
 21
10.2700211480327
 31
0.0
  0
LINE
  5
6D
102
{ACAD_REACTORS
330
A0
102
}
330
47
100
AcDbEntity
  8
1
  6
Continuous
 62
     7
100
AcDbLine
 10
-20.65703264459103
 20
10.2700211480327
 30
0.0
 11
-18.49045849342701
 21
9.0200745223616
 31
0.0
  0
LINE
  5
6E
102
{ACAD_REACTORS
330
A0
102
}
330
47
100
AcDbEntity
  8
1
  6
Continuous
 62
     7
100
AcDbLine
 10
-18.82360679575413
 20
8.44261746499581
 30
0.0
 11
-20.99018094691701
 21
9.69256409066691
 31
0.0
  0
LINE
  5
6F
102
{ACAD_REACTORS
330
A1
102
}
330
47
100
AcDbEntity
  8
1
  6
Continuous
 62
     7
100
AcDbLine
 10
-21.99036597792406
 20
14.15326939093671
 30
0.0
 11
-21.99036597792406
 21
11.0392519172633
 31
0.0
  0
LINE
  5
70
102
{ACAD_REACTORS
330
A1
102
}
330
47
100
AcDbEntity
  8
1
  6
Continuous
 62
     7
100
AcDbLine
 10
-21.99036597792406
 20
11.0392519172633
 30
0.0
 11
-21.99036597792406
 21
10.8467306090632
 31
0.0
  0
LINE
  5
71
102
{ACAD_REACTORS
330
A1
102
}
330
47
100
AcDbEntity
  8
1
  6
Continuous
 62
     7
100
AcDbLine
 10
-22.65703264459103
 20
10.8467306090632
 30
0.0
 11
-22.65703264459103
 21
14.15326939093671
 31
0.0
  0
LINE
  5
72
102
{ACAD_REACTORS
330
A2
102
}
330
47
100
AcDbEntity
  8
1
  6
Continuous
 62
     7
100
AcDbLine
 10
-15.49045849342701
 20
15.2112286888503
 30
0.0
 11
-14.1571251600941
 21
14.44199791961941
 31
0.0
  0
LINE
  5
73
102
{ACAD_REACTORS
330
A2
102
}
330
47
100
AcDbEntity
  8
1
  6
Continuous
 62
     7
100
AcDbLine
 10
-14.49027346241996
 20
13.86454086225382
 30
0.0
 11
-15.32369931125709
 21
14.34536346735192
 31
0.0
  0
LINE
  5
74
102
{ACAD_REACTORS
330
A2
102
}
330
47
100
AcDbEntity
  8
1
  6
Continuous
 62
     7
100
AcDbLine
 10
-15.32369931125709
 20
14.34536346735192
 30
0.0
 11
-15.32369931125709
 21
12.83333333333331
 31
0.0
  0
LINE
  5
75
102
{ACAD_REACTORS
330
A2
102
}
330
47
100
AcDbEntity
  8
1
  6
Continuous
 62
     7
100
AcDbLine
 10
-15.32369931125709
 20
12.83333333333331
 30
0.0
 11
-14.32369931125709
 21
12.83333333333331
 31
0.0
  0
LINE
  5
76
102
{ACAD_REACTORS
330
A2
102
}
330
47
100
AcDbEntity
  8
1
  6
Continuous
 62
     7
100
AcDbLine
 10
-14.32369931125709
 20
12.1666666666666
 30
0.0
 11
-15.32369931125709
 21
12.1666666666666
 31
0.0
  0
LINE
  5
77
102
{ACAD_REACTORS
330
A2
102
}
330
47
100
AcDbEntity
  8
1
  6
Continuous
 62
     7
100
AcDbLine
 10
-15.32369931125709
 20
12.1666666666666
 30
0.0
 11
-15.32369931125709
 21
10.65463653264791
 31
0.0
  0
LINE
  5
78
102
{ACAD_REACTORS
330
A2
102
}
330
47
100
AcDbEntity
  8
1
  6
Continuous
 62
     7
100
AcDbLine
 10
-15.32369931125709
 20
10.65463653264791
 30
0.0
 11
-14.49027346241996
 21
11.13545913774621
 31
0.0
  0
LINE
  5
79
102
{ACAD_REACTORS
330
A2
102
}
330
47
100
AcDbEntity
  8
1
  6
Continuous
 62
     7
100
AcDbLine
 10
-14.1571251600941
 20
10.55800208038031
 30
0.0
 11
-15.49045849342701
 21
9.7887713111497
 31
0.0
  0
LINE
  5
7A
330
47
100
AcDbEntity
  8
1
  6
Continuous
 62
     7
100
AcDbLine
 10
-189.0000000000001
 20
25.0
 30
0.0
 11
-5.0
 21
25.0
 31
0.0
  0
LINE
  5
7B
330
47
100
AcDbEntity
  8
1
  6
Continuous
 62
     7
100
AcDbLine
 10
-182.0000000000001
 20
20.0
 30
0.0
 11
-182.0000000000001
 21
25.0
 31
0.0
  0
LINE
  5
7C
330
47
100
AcDbEntity
  8
1
  6
Continuous
 62
     7
100
AcDbLine
 10
-164.0000000000001
 20
20.0
 30
0.0
 11
-164.0000000000001
 21
25.0
 31
0.0
  0
LINE
  5
7D
330
47
100
AcDbEntity
  8
1
  6
Continuous
 62
     7
100
AcDbLine
 10
-189.0000000000001
 20
30.0
 30
0.0
 11
-5.0
 21
30.0
 31
0.0
  0
LINE
  5
7E
330
47
100
AcDbEntity
  8
1
  6
Continuous
 62
     7
100
AcDbLine
 10
-182.0000000000001
 20
25.0
 30
0.0
 11
-182.0000000000001
 21
30.0
 31
0.0
  0
LINE
  5
7F
330
47
100
AcDbEntity
  8
1
  6
Continuous
 62
     7
100
AcDbLine
 10
-164.0000000000001
 20
25.0
 30
0.0
 11
-164.0000000000001
 21
30.0
 31
0.0
  0
LINE
  5
80
330
47
100
AcDbEntity
  8
1
  6
Continuous
 62
     7
100
AcDbLine
 10
-189.0000000000001
 20
35.0
 30
0.0
 11
-5.0
 21
35.0
 31
0.0
  0
LINE
  5
81
330
47
100
AcDbEntity
  8
1
  6
Continuous
 62
     7
100
AcDbLine
 10
-182.0000000000001
 20
30.0
 30
0.0
 11
-182.0000000000001
 21
35.0
 31
0.0
  0
LINE
  5
82
330
47
100
AcDbEntity
  8
1
  6
Continuous
 62
     7
100
AcDbLine
 10
-164.0000000000001
 20
30.0
 30
0.0
 11
-164.0000000000001
 21
35.0
 31
0.0
  0
LINE
  5
83
330
47
100
AcDbEntity
  8
1
  6
Continuous
 62
     7
100
AcDbLine
 10
-189.0000000000001
 20
40.0
 30
0.0
 11
-5.0
 21
40.0
 31
0.0
  0
LINE
  5
84
330
47
100
AcDbEntity
  8
1
  6
Continuous
 62
     7
100
AcDbLine
 10
-182.0000000000001
 20
35.0
 30
0.0
 11
-182.0000000000001
 21
40.0
 31
0.0
  0
LINE
  5
85
330
47
100
AcDbEntity
  8
1
  6
Continuous
 62
     7
100
AcDbLine
 10
-164.0000000000001
 20
35.0
 30
0.0
 11
-164.0000000000001
 21
40.0
 31
0.0
  0
LINE
  5
86
330
47
100
AcDbEntity
  8
1
  6
Continuous
 62
     7
100
AcDbLine
 10
-292.0000000000003
 20
189.0
 30
0.0
 11
-292.0000000000003
 21
5.0
 31
0.0
  0
LINE
  5
87
330
47
100
AcDbEntity
  8
1
  6
Continuous
 62
     7
100
AcDbLine
 10
-189.0000000000001
 20
20.0
 30
0.0
 11
-5.0
 21
20.0
 31
0.0
  0
LINE
  5
88
330
47
100
AcDbEntity
  8
1
  6
Continuous
 62
     7
100
AcDbLine
 10
-189.0000000000001
 20
4.99999999999991
 30
0.0
 11
-189.0000000000001
 21
40.0
 31
0.0
  0
ARC
  5
89
102
{ACAD_REACTORS
330
9F
102
}
330
47
100
AcDbEntity
  8
1
  6
Continuous
 62
     7
100
AcDbCircle
 10
-19.7253997654492
 20
15.7312173120346
 30
0.0
 40
0.2649662124752362
100
AcDbArc
 50
30.00000000002536
 51
180.0
  0
ARC
  5
8A
102
{ACAD_REACTORS
330
9F
102
}
330
47
100
AcDbEntity
  8
1
  6
Continuous
 62
     7
100
AcDbCircle
 10
-19.65703264459103
 20
10.84758507263291
 30
0.0
 40
0.3333333333330302
100
AcDbArc
 50
180.0
 51
0.0
  0
ARC
  5
8B
102
{ACAD_REACTORS
330
9F
102
}
330
47
100
AcDbEntity
  8
1
  6
Continuous
 62
     7
100
AcDbCircle
 10
-16.99036597792406
 20
9.3082690706018
 30
0.0
 40
0.3333333333330302
100
AcDbArc
 50
180.0
 51
0.0
  0
ARC
  5
8C
102
{ACAD_REACTORS
330
9F
102
}
330
47
100
AcDbEntity
  8
1
  6
Continuous
 62
     7
100
AcDbCircle
 10
-16.921998857066
 20
15.7312173120346
 30
0.0
 40
0.2649662124749703
100
AcDbArc
 50
0.0
 51
149.9999999999873
  0
ARC
  5
8D
102
{ACAD_REACTORS
330
A0
102
}
330
47
100
AcDbEntity
  8
1
  6
Continuous
 62
     7
100
AcDbCircle
 10
-20.99036597792406
 20
14.9225001601674
 30
0.0
 40
0.3333333333330302
100
AcDbArc
 50
0.0
 51
180.0
  0
ARC
  5
8E
102
{ACAD_REACTORS
330
A0
102
}
330
47
100
AcDbEntity
  8
1
  6
Continuous
 62
     7
100
AcDbCircle
 10
-18.65703264459103
 20
8.7313459936787
 30
0.0
 40
0.3333333333333123
100
AcDbArc
 50
240.0183606311668
 51
60.01836063102982
  0
ARC
  5
8F
102
{ACAD_REACTORS
330
A1
102
}
330
47
100
AcDbEntity
  8
1
  6
Continuous
 62
     7
100
AcDbCircle
 10
-22.32369931125709
 20
14.15326939093671
 30
0.0
 40
0.3333333333330302
100
AcDbArc
 50
0.0
 51
180.0
  0
ARC
  5
90
102
{ACAD_REACTORS
330
A1
102
}
330
47
100
AcDbEntity
  8
1
  6
Continuous
 62
     7
100
AcDbCircle
 10
-22.32369931125709
 20
10.8467306090632
 30
0.0
 40
0.3333333333339397
100
AcDbArc
 50
180.0
 51
0.0
  0
ARC
  5
91
102
{ACAD_REACTORS
330
A2
102
}
330
47
100
AcDbEntity
  8
1
  6
Continuous
 62
     7
100
AcDbCircle
 10
-14.32369931125709
 20
14.15326939093671
 30
0.0
 40
0.3333333333331923
100
AcDbArc
 50
240.0183606312007
 51
60.01836063116643
  0
ARC
  5
92
102
{ACAD_REACTORS
330
A2
102
}
330
47
100
AcDbEntity
  8
1
  6
Continuous
 62
     7
100
AcDbCircle
 10
-14.32369931125709
 20
12.5
 30
0.0
 40
0.3333333333333997
100
AcDbArc
 50
270.0
 51
90.0
  0
ARC
  5
93
102
{ACAD_REACTORS
330
A2
102
}
330
47
100
AcDbEntity
  8
1
  6
Continuous
 62
     7
100
AcDbCircle
 10
-14.32369931125709
 20
10.8467306090632
 30
0.0
 40
0.3333333333332527
100
AcDbArc
 50
299.9816393688172
 51
119.981639368789
  0
ARC
  5
94
102
{ACAD_REACTORS
330
9F
102
}
330
47
100
AcDbEntity
  8
1
  6
Continuous
 62
     7
100
AcDbCircle
 10
-18.32369931125709
 20
12.83333333333331
 30
0.0
 40
0.1666666666671255
100
AcDbArc
 50
209.9999999999
 51
329.9999999999455
  0
ARC
  5
95
102
{ACAD_REACTORS
330
A0
102
}
330
47
100
AcDbEntity
  8
1
  6
Continuous
 62
     7
100
AcDbCircle
 10
-20.65703264459103
 20
10.2700211480327
 30
0.0
 40
0.6666666666660603
100
AcDbArc
 50
180.0000000000078
 51
240.0183606311834
  0
ARC
  5
96
330
47
100
AcDbEntity
  8
1
  6
Continuous
 62
     7
100
AcDbCircle
 10
-26.65684751081699
 20
12.5
 30
0.0
 40
0.1666666666668193
100
AcDbArc
 50
119.9816393690257
 51
240.018360630988
  0
ARC
  5
97
330
47
100
AcDbEntity
  8
1
  6
Continuous
 62
     7
100
AcDbCircle
 10
-9.99055111169696
 20
12.5
 30
0.0
 40
0.1666666666662654
100
AcDbArc
 50
299.9816393686406
 51
60.01836063134561
  0
ARC
  5
98
102
{ACAD_REACTORS
330
A2
102
}
330
47
100
AcDbEntity
  8
1
  6
Continuous
 62
     7
100
AcDbCircle
 10
-15.65703264459103
 20
14.9225001601674
 30
0.0
 40
0.3333333333337752
100
AcDbArc
 50
60.01836063103012
 51
180.0
  0
ARC
  5
99
102
{ACAD_REACTORS
330
A2
102
}
330
47
100
AcDbEntity
  8
1
  6
Continuous
 62
     7
100
AcDbCircle
 10
-15.65703264459103
 20
10.0774998398326
 30
0.0
 40
0.3333333333330302
100
AcDbArc
 50
180.0
 51
299.98163936897
  0
MTEXT
  5
9B
330
47
100
AcDbEntity
  8
1
 62
     7
100
AcDbMText
 10
-145.5000000000001
 20
194.0000000000001
 30
0.0
 40
4.0
 41
0.0
 71
     5
 72
     1
  1
Diritti riservati      All rights reserved
  7
CONVERTER_11
 73
     1
 44
1.32052821128451
  0
MTEXT
  5
9C
330
47
100
AcDbEntity
  8
1
 62
     7
100
AcDbMText
 10
-187.0000000000001
 20
16.26063942075601
 30
0.0
 40
3.0
 41
0.0
 71
     4
 72
     1
  1
Date
  7
CONVERTER_11
 73
     1
 44
1.32052821128451
  0
MTEXT
  5
9D
330
47
100
AcDbEntity
  8
1
 62
     7
100
AcDbMText
 10
-187.0000000000001
 20
8.75
 30
0.0
 40
3.0
 41
0.0
 71
     4
 72
     1
  1
Sign.
  7
CONVERTER_11
 73
     1
 44
1.32052821128451
  0
MTEXT
  5
9E
330
47
100
AcDbEntity
  8
1
 62
     7
100
AcDbMText
 10
-40.32369931125709
 20
16.26063942075601
 30
0.0
 40
3.0
 41
0.0
 71
     5
 72
     1
  1
Scale
  7
CONVERTER_11
 73
     1
 44
1.32052821128451
  0
HATCH
  5
9F
330
47
100
AcDbEntity
  8
1
  6
Continuous
 62
     7
100
AcDbHatch
 10
0.0
 20
0.0
 30
0.0
210
0.0
220
0.0
230
1.0
  2
SOLID
 70
     1
 71
     1
 91
        1
 92
        1
 93
       16
 72
     2
 10
-19.7253997654492
 20
15.7312173120346
 40
0.2649662124752362
 50
30.00000000002536
 51
180.0
 73
     1
 72
     1
 10
-19.99036597792406
 20
15.7312173120346
 11
-19.99036597792406
 21
12.5
 72
     1
 10
-19.99036597792406
 20
12.5
 11
-19.99036597792406
 21
10.84758507263291
 72
     2
 10
-19.65703264459103
 20
10.84758507263291
 40
0.3333333333330302
 50
180.0
 51
360.0
 73
     1
 72
     1
 10
-19.32369931125709
 20
10.84758507263291
 11
-19.32369931125709
 21
12.5
 72
     1
 10
-19.32369931125709
 20
12.5
 11
-19.32369931125709
 21
14.23205080756881
 72
     1
 10
-19.32369931125709
 20
14.23205080756881
 11
-18.46803687855504
 21
12.75
 72
     2
 10
-18.32369931125709
 20
12.83333333333331
 40
0.1666666666671255
 50
209.9999999999
 51
329.9999999999455
 73
     1
 72
     1
 10
-18.17936174396004
 20
12.75
 11
-17.32369931125709
 21
14.23205080756881
 72
     1
 10
-17.32369931125709
 20
14.23205080756881
 11
-17.32369931125709
 21
12.5
 72
     1
 10
-17.32369931125709
 20
12.5
 11
-17.32369931125709
 21
9.308269070601796
 72
     2
 10
-16.99036597792406
 20
9.308269070601796
 40
0.3333333333330302
 50
180.0
 51
360.0
 73
     1
 72
     1
 10
-16.65703264459103
 20
9.308269070601796
 11
-16.65703264459103
 21
15.7312173120346
 72
     2
 10
-16.921998857066
 20
15.7312173120346
 40
0.2649662124749703
 50
0.0
 51
149.9999999999873
 73
     1
 72
     1
 10
-17.15146632821416
 20
15.86370041827232
 11
-18.32369931125709
 21
13.83333333333331
 72
     1
 10
-18.32369931125709
 20
13.83333333333331
 11
-19.49593229430116
 21
15.86370041827232
 97
       16
330
6A
330
8C
330
69
330
8B
330
68
330
5C
330
5D
330
94
330
5E
330
5F
330
67
330
8A
330
66
330
64
330
89
330
65
 75
     0
 76
     1
 98
        1
 10
0.0
 20
0.0
  0
HATCH
  5
A0
330
47
100
AcDbEntity
  8
1
  6
Continuous
 62
     7
100
AcDbHatch
 10
0.0
 20
0.0
 30
0.0
210
0.0
220
0.0
230
1.0
  2
SOLID
 70
     1
 71
     1
 91
        1
 92
        1
 93
        7
 72
     1
 10
-20.65703264459103
 20
14.9225001601674
 11
-20.65703264459103
 21
10.2700211480327
 72
     1
 10
-20.65703264459103
 20
10.2700211480327
 11
-18.49045849342701
 21
9.020074522361597
 72
     2
 10
-18.65703264459103
 20
8.731345993678701
 40
0.3333333333333123
 50
299.9816393689701
 51
479.9816393688332
 73
     0
 72
     1
 10
-18.82360679575413
 20
8.442617464995806
 11
-20.99018094691701
 21
9.692564090666906
 72
     2
 10
-20.65703264459103
 20
10.2700211480327
 40
0.6666666666660603
 50
119.9816393688166
 51
179.9999999999922
 73
     0
 72
     1
 10
-21.32369931125709
 20
10.27002114803261
 11
-21.32369931125709
 21
14.9225001601674
 72
     2
 10
-20.99036597792406
 20
14.9225001601674
 40
0.3333333333330302
 50
180.0
 51
360.0
 73
     0
 97
        7
330
6C
330
6D
330
8E
330
6E
330
95
330
6B
330
8D
 75
     0
 76
     1
 98
        1
 10
0.0
 20
0.0
  0
HATCH
  5
A1
330
47
100
AcDbEntity
  8
1
  6
Continuous
 62
     7
100
AcDbHatch
 10
0.0
 20
0.0
 30
0.0
210
0.0
220
0.0
230
1.0
  2
SOLID
 70
     1
 71
     1
 91
        1
 92
        1
 93
        5
 72
     1
 10
-21.99036597792406
 20
14.15326939093671
 11
-21.99036597792406
 21
11.0392519172633
 72
     1
 10
-21.99036597792406
 20
11.0392519172633
 11
-21.99036597792406
 21
10.8467306090632
 72
     2
 10
-22.32369931125709
 20
10.8467306090632
 40
0.3333333333339397
 50
0.0
 51
180.0
 73
     0
 72
     1
 10
-22.65703264459103
 20
10.8467306090632
 11
-22.65703264459103
 21
14.15326939093671
 72
     2
 10
-22.32369931125709
 20
14.15326939093671
 40
0.3333333333330302
 50
180.0
 51
360.0
 73
     0
 97
        5
330
6F
330
70
330
90
330
71
330
8F
 75
     0
 76
     1
 98
        1
 10
0.0
 20
0.0
  0
HATCH
  5
A2
330
47
100
AcDbEntity
  8
1
  6
Continuous
 62
     7
100
AcDbHatch
 10
0.0
 20
0.0
 30
0.0
210
0.0
220
0.0
230
1.0
  2
SOLID
 70
     1
 71
     1
 91
        1
 92
        1
 93
       14
 72
     1
 10
-14.49027346241996
 20
13.86454086225382
 11
-15.32369931125709
 21
14.34536346735192
 72
     1
 10
-15.32369931125709
 20
14.34536346735192
 11
-15.32369931125709
 21
12.83333333333331
 72
     1
 10
-15.32369931125709
 20
12.83333333333331
 11
-14.32369931125709
 21
12.83333333333331
 72
     2
 10
-14.32369931125709
 20
12.5
 40
0.3333333333333997
 50
270.0
 51
450.0
 73
     0
 72
     1
 10
-14.32369931125709
 20
12.1666666666666
 11
-15.32369931125709
 21
12.1666666666666
 72
     1
 10
-15.32369931125709
 20
12.1666666666666
 11
-15.32369931125709
 21
10.65463653264791
 72
     1
 10
-15.32369931125709
 20
10.65463653264791
 11
-14.49027346241996
 21
11.13545913774621
 72
     2
 10
-14.32369931125709
 20
10.8467306090632
 40
0.3333333333332527
 50
240.018360631211
 51
420.0183606311828
 73
     0
 72
     1
 10
-14.1571251600941
 20
10.55800208038031
 11
-15.49045849342701
 21
9.788771311149702
 72
     2
 10
-15.65703264459103
 20
10.0774998398326
 40
0.3333333333330302
 50
60.01836063102994
 51
180.0
 73
     0
 72
     1
 10
-15.99036597792406
 20
10.0774998398326
 11
-15.99036597792406
 21
14.9225001601674
 72
     2
 10
-15.65703264459103
 20
14.9225001601674
 40
0.3333333333337752
 50
180.0
 51
299.9816393689699
 73
     0
 72
     1
 10
-15.49045849342701
 20
15.2112286888503
 11
-14.1571251600941
 21
14.44199791961941
 72
     2
 10
-14.32369931125709
 20
14.15326939093671
 40
0.3333333333331923
 50
299.9816393688336
 51
479.9816393687993
 73
     0
 97
       14
330
72
330
98
330
5B
330
99
330
79
330
93
330
78
330
77
330
76
330
92
330
75
330
74
330
73
330
91
 75
     0
 76
     1
 98
        1
 10
0.0
 20
0.0
  0
ENDBLK
  5
49
330
47
100
AcDbEntity
  8
0
100
AcDbBlockEnd
  0
BLOCK
  5
4C
330
4A
100
AcDbEntity
  8
0
100
AcDbBlockBegin
  2
A4_oriz
 70
     0
 10
0.0
 20
0.0
 30
0.0
  3
A4_oriz
  1

  0
INSERT
  5
4B
330
4A
100
AcDbEntity
  8
1
100
AcDbBlockReference
  2
_formato_A4
 10
0.0
 20
0.0
 30
0.0
  0
ENDBLK
  5
4D
330
4A
100
AcDbEntity
  8
0
100
AcDbBlockEnd
  0
BLOCK
  5
1A8
330
1A0
100
AcDbEntity
  8
0
100
AcDbBlockBegin
  2
*D3
 70
     1
 10
0.0
 20
0.0
 30
0.0
  3
*D3
  1

  0
LINE
  5
1A1
330
1A0
100
AcDbEntity
  8
1
  6
Continuous
 62
     2
100
AcDbLine
 10
-269.981232708526
 20
50.43108464917856
 30
0.0
 11
-131.9781354245842
 21
50.43108464917856
 31
0.0
  0
LINE
  5
1A2
330
1A0
100
AcDbEntity
  8
1
  6
Continuous
 62
     2
100
AcDbLine
 10
-269.981232708526
 20
74.80618803085085
 30
0.0
 11
-269.981232708526
 21
49.43108464917856
 31
0.0
  0
LINE
  5
1A3
330
1A0
100
AcDbEntity
  8
1
  6
Continuous
 62
     2
100
AcDbLine
 10
-131.9781354245842
 20
74.80618803085085
 30
0.0
 11
-131.9781354245842
 21
49.43108464917856
 31
0.0
  0
SOLID
  5
1A4
330
1A0
100
AcDbEntity
  8
1
 62
     2
100
AcDbTrace
 10
-266.981232708526
 20
50.82604214194075
 30
0.0
 11
-266.981232708526
 21
50.03612715641637
 31
0.0
 12
-269.981232708526
 22
50.43108464917856
 32
0.0
 13
-269.981232708526
 23
50.43108464917856
 33
0.0
  0
SOLID
  5
1A5
330
1A0
100
AcDbEntity
  8
1
 62
     2
100
AcDbTrace
 10
-134.9781354245842
 20
50.03612715641637
 30
0.0
 11
-134.9781354245842
 21
50.82604214194075
 31
0.0
 12
-131.9781354245842
 22
50.43108464917856
 32
0.0
 13
-131.9781354245842
 23
50.43108464917856
 33
0.0
  0
MTEXT
  5
1A7
330
1A0
100
AcDbEntity
  8
1
 62
     4
100
AcDbMText
 10
-204.1296840665551
 20
52.43108464917856
 30
0.0
 40
3.0
 41
0.0
 71
     7
 72
     1
  1
138
  7
CONVERTER_12
 11
0.9999999999970619
 21
2.424068405545306E-6
 31
0.0
 73
     1
 44
0.60024009603842
  0
ENDBLK
  5
1A9
330
1A0
100
AcDbEntity
  8
0
100
AcDbBlockEnd
  0
BLOCK
  5
1B3
330
1AC
100
AcDbEntity
  8
0
100
AcDbBlockBegin
  2
*D4
 70
     1
 10
0.0
 20
0.0
 30
0.0
  3
*D4
  1

  0
LINE
  5
1AD
330
1AC
100
AcDbEntity
  8
1
  6
Continuous
 62
     2
100
AcDbLine
 10
-244.4796840665544
 20
158.6205159402939
 30
0.0
 11
-207.4796840665544
 21
158.6205159402939
 31
0.0
  0
LINE
  5
1AE
330
1AC
100
AcDbEntity
  8
1
  6
Continuous
 62
     2
100
AcDbLine
 10
-244.4796840665544
 20
146.4061880308496
 30
0.0
 11
-244.4796840665544
 21
159.6205159402939
 31
0.0
  0
LINE
  5
1AF
330
1AC
100
AcDbEntity
  8
1
  6
Continuous
 62
     2
100
AcDbLine
 10
-207.4796840665544
 20
146.4061880308501
 30
0.0
 11
-207.4796840665544
 21
159.6205159402939
 31
0.0
  0
SOLID
  5
1B0
330
1AC
100
AcDbEntity
  8
1
 62
     2
100
AcDbTrace
 10
-241.4796840665544
 20
159.0154734330561
 30
0.0
 11
-241.4796840665544
 21
158.2255584475317
 31
0.0
 12
-244.4796840665544
 22
158.6205159402939
 32
0.0
 13
-244.4796840665544
 23
158.6205159402939
 33
0.0
  0
SOLID
  5
1B1
330
1AC
100
AcDbEntity
  8
1
 62
     2
100
AcDbTrace
 10
-210.4796840665544
 20
158.2255584475317
 30
0.0
 11
-210.4796840665544
 21
159.0154734330561
 31
0.0
 12
-207.4796840665544
 22
158.6205159402939
 32
0.0
 13
-207.4796840665544
 23
158.6205159402939
 33
0.0
  0
MTEXT
  5
1B2
330
1AC
100
AcDbEntity
  8
1
 62
     4
100
AcDbMText
 10
-230.1496840665399
 20
161.5205040138773
 30
0.0
 40
3.0
 41
0.0
 71
     7
 72
     1
  1
\C4;Pg\C4;29
  7
CONVERTER_12
 11
0.9999999999970619
 21
2.424068405545306E-6
 31
0.0
 73
     1
 44
0.60024009603842
  0
ENDBLK
  5
1B4
330
1AC
100
AcDbEntity
  8
0
100
AcDbBlockEnd
  0
BLOCK
  5
1BE
330
1B7
100
AcDbEntity
  8
0
100
AcDbBlockBegin
  2
*D5
 70
     1
 10
0.0
 20
0.0
 30
0.0
  3
*D5
  1

  0
LINE
  5
1B8
330
1B7
100
AcDbEntity
  8
1
  6
Continuous
 62
     2
100
AcDbLine
 10
-194.4796840665557
 20
158.6205159402939
 30
0.0
 11
-157.4796840665557
 21
158.6205159402939
 31
0.0
  0
LINE
  5
1B9
330
1B7
100
AcDbEntity
  8
1
  6
Continuous
 62
     2
100
AcDbLine
 10
-194.4796840665557
 20
146.4061880308501
 30
0.0
 11
-194.4796840665557
 21
159.6205159402939
 31
0.0
  0
LINE
  5
1BA
330
1B7
100
AcDbEntity
  8
1
  6
Continuous
 62
     2
100
AcDbLine
 10
-157.4796840665557
 20
146.4061880308496
 30
0.0
 11
-157.4796840665557
 21
159.6205159402939
 31
0.0
  0
SOLID
  5
1BB
330
1B7
100
AcDbEntity
  8
1
 62
     2
100
AcDbTrace
 10
-191.4796840665557
 20
159.0154734330561
 30
0.0
 11
-191.4796840665557
 21
158.2255584475317
 31
0.0
 12
-194.4796840665557
 22
158.6205159402939
 32
0.0
 13
-194.4796840665557
 23
158.6205159402939
 33
0.0
  0
SOLID
  5
1BC
330
1B7
100
AcDbEntity
  8
1
 62
     2
100
AcDbTrace
 10
-160.4796840665557
 20
158.2255584475317
 30
0.0
 11
-160.4796840665557
 21
159.0154734330561
 31
0.0
 12
-157.4796840665557
 22
158.6205159402939
 32
0.0
 13
-157.4796840665557
 23
158.6205159402939
 33
0.0
  0
MTEXT
  5
1BD
330
1B7
100
AcDbEntity
  8
1
 62
     4
100
AcDbMText
 10
-180.1496840665413
 20
161.5205040138773
 30
0.0
 40
3.0
 41
0.0
 71
     7
 72
     1
  1
\C4;Pg\C4;29
  7
CONVERTER_12
 11
0.9999999999970619
 21
2.424068405545306E-6
 31
0.0
 73
     1
 44
0.60024009603842
  0
ENDBLK
  5
1BF
330
1B7
100
AcDbEntity
  8
0
100
AcDbBlockEnd
  0
BLOCK
  5
1C9
330
1C2
100
AcDbEntity
  8
0
100
AcDbBlockBegin
  2
*D6
 70
     1
 10
0.0
 20
0.0
 30
0.0
  3
*D6
  1

  0
LINE
  5
1C3
330
1C2
100
AcDbEntity
  8
1
  6
Continuous
 62
     2
100
AcDbLine
 10
-225.9796840665544
 20
172.8737032317347
 30
0.0
 11
-175.9796840665556
 21
172.8737032317347
 31
0.0
  0
LINE
  5
1C4
330
1C2
100
AcDbEntity
  8
1
  6
Continuous
 62
     2
100
AcDbLine
 10
-225.9796840665544
 20
172.2751367935854
 30
0.0
 11
-225.9796840665544
 21
173.8737032317347
 31
0.0
  0
LINE
  5
1C5
330
1C2
100
AcDbEntity
  8
1
  6
Continuous
 62
     2
100
AcDbLine
 10
-175.9796840665556
 20
172.2751367935854
 30
0.0
 11
-175.9796840665556
 21
173.8737032317347
 31
0.0
  0
SOLID
  5
1C6
330
1C2
100
AcDbEntity
  8
1
 62
     2
100
AcDbTrace
 10
-222.9796840665544
 20
173.2686607244969
 30
0.0
 11
-222.9796840665544
 21
172.4787457389725
 31
0.0
 12
-225.9796840665544
 22
172.8737032317347
 32
0.0
 13
-225.9796840665544
 23
172.8737032317347
 33
0.0
  0
SOLID
  5
1C7
330
1C2
100
AcDbEntity
  8
1
 62
     2
100
AcDbTrace
 10
-178.9796840665556
 20
172.4787457389725
 30
0.0
 11
-178.9796840665556
 21
173.2686607244969
 31
0.0
 12
-175.9796840665556
 22
172.8737032317347
 32
0.0
 13
-175.9796840665556
 23
172.8737032317347
 33
0.0
  0
MTEXT
  5
1C8
330
1C2
100
AcDbEntity
  8
1
 62
     4
100
AcDbMText
 10
-203.229684066555
 20
174.8737032317347
 30
0.0
 40
3.0
 41
0.0
 71
     7
 72
     1
  1
50
  7
CONVERTER_12
 11
0.9999999999970619
 21
2.424068405545306E-6
 31
0.0
 73
     1
 44
0.60024009603842
  0
ENDBLK
  5
1CA
330
1C2
100
AcDbEntity
  8
0
100
AcDbBlockEnd
  0
BLOCK
  5
1D4
330
1CD
100
AcDbEntity
  8
0
100
AcDbBlockBegin
  2
*D7
 70
     1
 10
0.0
 20
0.0
 30
0.0
  3
*D7
  1

  0
LINE
  5
1CE
330
1CD
100
AcDbEntity
  8
1
  6
Continuous
 62
     2
100
AcDbLine
 10
-260.9796840598024
 20
63.09200245016595
 30
0.0
 11
-140.9796840733076
 21
63.09200245016595
 31
0.0
  0
LINE
  5
1CF
330
1CD
100
AcDbEntity
  8
1
  6
Continuous
 62
     2
100
AcDbLine
 10
-260.9796840598024
 20
72.45191122992898
 30
0.0
 11
-260.9796840598024
 21
62.09200245016595
 31
0.0
  0
LINE
  5
1D0
330
1CD
100
AcDbEntity
  8
1
  6
Continuous
 62
     2
100
AcDbLine
 10
-140.9796840733076
 20
72.45191122992898
 30
0.0
 11
-140.9796840733076
 21
62.09200245016595
 31
0.0
  0
SOLID
  5
1D1
330
1CD
100
AcDbEntity
  8
1
 62
     2
100
AcDbTrace
 10
-257.9796840598024
 20
63.48695994292814
 30
0.0
 11
-257.9796840598024
 21
62.69704495740376
 31
0.0
 12
-260.9796840598024
 22
63.09200245016595
 32
0.0
 13
-260.9796840598024
 23
63.09200245016595
 33
0.0
  0
SOLID
  5
1D2
330
1CD
100
AcDbEntity
  8
1
 62
     2
100
AcDbTrace
 10
-143.9796840733076
 20
62.69704495740376
 30
0.0
 11
-143.9796840733076
 21
63.48695994292814
 31
0.0
 12
-140.9796840733076
 22
63.09200245016595
 32
0.0
 13
-140.9796840733076
 23
63.09200245016595
 33
0.0
  0
MTEXT
  5
1D3
330
1CD
100
AcDbEntity
  8
1
 62
     4
100
AcDbMText
 10
-204.129684066555
 20
65.09200245016595
 30
0.0
 40
3.0
 41
0.0
 71
     7
 72
     1
  1
120
  7
CONVERTER_12
 11
0.9999999999970619
 21
2.424068405545306E-6
 31
0.0
 73
     1
 44
0.60024009603842
  0
ENDBLK
  5
1D5
330
1CD
100
AcDbEntity
  8
0
100
AcDbBlockEnd
  0
BLOCK
  5
1DF
330
1D8
100
AcDbEntity
  8
0
100
AcDbBlockBegin
  2
*D8
 70
     1
 10
0.0
 20
0.0
 30
0.0
  3
*D8
  1

  0
LINE
  5
1D9
330
1D8
100
AcDbEntity
  8
1
  6
Continuous
 62
     2
100
AcDbLine
 10
-88.82976880562398
 20
63.01533501889014
 30
0.0
 11
-45.82976880562376
 21
63.01533501889014
 31
0.0
  0
LINE
  5
1DA
330
1D8
100
AcDbEntity
  8
1
  6
Continuous
 62
     2
100
AcDbLine
 10
-88.82976880562398
 20
72.45191122992713
 30
0.0
 11
-88.82976880562398
 21
62.01533501889014
 31
0.0
  0
LINE
  5
1DB
330
1D8
100
AcDbEntity
  8
1
  6
Continuous
 62
     2
100
AcDbLine
 10
-45.82976880562376
 20
72.45191122992713
 30
0.0
 11
-45.82976880562376
 21
62.01533501889014
 31
0.0
  0
SOLID
  5
1DC
330
1D8
100
AcDbEntity
  8
1
 62
     2
100
AcDbTrace
 10
-85.82976880562398
 20
63.41029251165233
 30
0.0
 11
-85.82976880562398
 21
62.62037752612795
 31
0.0
 12
-88.82976880562398
 22
63.01533501889014
 32
0.0
 13
-88.82976880562398
 23
63.01533501889014
 33
0.0
  0
SOLID
  5
1DD
330
1D8
100
AcDbEntity
  8
1
 62
     2
100
AcDbTrace
 10
-48.82976880562376
 20
62.62037752612795
 30
0.0
 11
-48.82976880562376
 21
63.41029251165233
 31
0.0
 12
-45.82976880562376
 22
63.01533501889014
 32
0.0
 13
-45.82976880562376
 23
63.01533501889014
 33
0.0
  0
MTEXT
  5
1DE
330
1D8
100
AcDbEntity
  8
1
 62
     4
100
AcDbMText
 10
-69.57976880562387
 20
65.01533501889014
 30
0.0
 40
3.0
 41
0.0
 71
     7
 72
     1
  1
43
  7
CONVERTER_12
 11
0.9999999999970619
 21
2.424068405545306E-6
 31
0.0
 73
     1
 44
0.60024009603842
  0
ENDBLK
  5
1E0
330
1D8
100
AcDbEntity
  8
0
100
AcDbBlockEnd
  0
BLOCK
  5
1EA
330
1E3
100
AcDbEntity
  8
0
100
AcDbBlockBegin
  2
*D9
 70
     1
 10
0.0
 20
0.0
 30
0.0
  3
*D9
  1

  0
LINE
  5
1E4
330
1E3
100
AcDbEntity
  8
1
  6
Continuous
 62
     2
100
AcDbLine
 10
-26.7703378746387
 20
148.7050580563501
 30
0.0
 11
-26.7703378746387
 21
72.70618803084889
 31
0.0
  0
LINE
  5
1E5
330
1E3
100
AcDbEntity
  8
1
  6
Continuous
 62
     2
100
AcDbLine
 10
-66.7866168204099
 20
148.7050580563501
 30
0.0
 11
-25.7703378746387
 21
148.7050580563501
 31
0.0
  0
LINE
  5
1E6
330
1E3
100
AcDbEntity
  8
1
  6
Continuous
 62
     2
100
AcDbLine
 10
-46.72976880562385
 20
72.70618803084889
 30
0.0
 11
-25.7703378746387
 21
72.70618803084889
 31
0.0
  0
SOLID
  5
1E7
330
1E3
100
AcDbEntity
  8
1
 62
     2
100
AcDbTrace
 10
-26.37538038187651
 20
145.7050580563501
 30
0.0
 11
-27.16529536740089
 21
145.7050580563501
 31
0.0
 12
-26.7703378746387
 22
148.7050580563501
 32
0.0
 13
-26.7703378746387
 23
148.7050580563501
 33
0.0
  0
SOLID
  5
1E8
330
1E3
100
AcDbEntity
  8
1
 62
     2
100
AcDbTrace
 10
-27.16529536740089
 20
75.70618803084889
 30
0.0
 11
-26.37538038187651
 21
75.70618803084889
 31
0.0
 12
-26.7703378746387
 22
72.70618803084889
 32
0.0
 13
-26.7703378746387
 23
72.70618803084889
 33
0.0
  0
MTEXT
  5
1E9
330
1E3
100
AcDbEntity
  8
1
 62
     4
100
AcDbMText
 10
-28.7703378746387
 20
108.4556230435995
 30
0.0
 40
3.0
 41
0.0
 71
     7
 72
     1
  1
76
  7
CONVERTER_12
 11
0.0
 21
1.0
 31
0.0
 73
     1
 44
0.60024009603842
  0
ENDBLK
  5
1EB
330
1E3
100
AcDbEntity
  8
0
100
AcDbBlockEnd
  0
ENDSEC
  0
SECTION
  2
ENTITIES
  0
INSERT
  5
4E
330
1F
100
AcDbEntity
  8
0
100
AcDbBlockReference
  2
A4_oriz
 10
0.0
 20
0.0
 30
0.0
  0
LINE
  5
A3
330
1F
100
AcDbEntity
  8
1
  6
Continuous
 62
     7
100
AcDbLine
 10
-49.57976880562376
 20
148.2044754437457
 30
0.0
 11
-49.55060105651319
 21
148.2044754437457
 31
0.0
  0
LINE
  5
A4
330
1F
100
AcDbEntity
  8
0
  6
DOT_CENTER
 62
     2
100
AcDbLine
 10
-225.9796840665544
 20
160.0751367935854
 30
0.0
 11
-225.9796840665544
 21
145.6751367935853
 31
0.0
  0
LINE
  5
A5
330
1F
100
AcDbEntity
  8
0
  6
Continuous
 62
     2
100
AcDbLine
 10
-244.4796840665544
 20
145.9061880308497
 30
0.0
 11
-244.4796840665544
 21
151.5061880308515
 31
0.0
  0
LINE
  5
A6
330
1F
100
AcDbEntity
  8
0
  6
Continuous
 62
     2
100
AcDbLine
 10
-207.4796840665544
 20
145.9061880308502
 30
0.0
 11
-207.4796840665544
 21
151.5061880308515
 31
0.0
  0
LINE
  5
A7
330
1F
100
AcDbEntity
  8
0
  6
Continuous
 62
     7
100
AcDbLine
 10
-65.82976880562376
 20
84.70618803085023
 30
0.0
 11
-65.82976880562376
 21
102.7061880308502
 31
0.0
  0
LINE
  5
A8
330
1F
100
AcDbEntity
  8
0
  6
Continuous
 62
     7
100
AcDbLine
 10
-67.2866168204099
 20
148.7050580563501
 30
0.0
 11
-67.26436774268552
 21
148.7044754437457
 31
0.0
  0
LINE
  5
A9
330
1F
100
AcDbEntity
  8
0
  6
Continuous
 62
     2
100
AcDbLine
 10
-67.37976880562394
 20
148.7061880308502
 30
0.0
 11
-67.2797688056238
 21
148.7061880308502
 31
0.0
  0
LINE
  5
AA
330
1F
100
AcDbEntity
  8
0
  6
DASH_CENTER
 62
     2
100
AcDbLine
 10
-67.32976880562376
 20
155.5126757692378
 30
0.0
 11
-67.32976880562376
 21
70.01267576923766
 31
0.0
  0
LINE
  5
AB
330
1F
100
AcDbEntity
  8
0
  6
Continuous
 62
     7
100
AcDbLine
 10
-67.32976880562376
 20
72.7061880308517
 30
0.0
 11
-47.22976880562385
 21
72.70618803084886
 31
0.0
  0
LINE
  5
AC
330
1F
100
AcDbEntity
  8
0
  6
Continuous
 62
     7
100
AcDbLine
 10
-45.84680100194612
 20
72.95004256809142
 30
0.0
 11
-47.22976880562385
 21
72.70618803084886
 31
0.0
  0
LINE
  5
AD
330
1F
100
AcDbEntity
  8
0
  6
Continuous
 62
     7
100
AcDbLine
 10
-45.84680100194612
 20
72.95004256809142
 30
0.0
 11
-45.82976880562376
 21
72.95191122992713
 31
0.0
  0
LINE
  5
AE
330
1F
100
AcDbEntity
  8
0
  6
Continuous
 62
     7
100
AcDbLine
 10
-47.32310136972762
 20
101.2061880308502
 30
0.0
 11
-46.34913163907606
 21
102.7061880308502
 31
0.0
  0
LINE
  5
AF
330
1F
100
AcDbEntity
  8
0
  6
Continuous
 62
     7
100
AcDbLine
 10
-46.29676644429139
 20
99.70618803085023
 30
0.0
 11
-47.32310136972762
 21
101.2061880308502
 31
0.0
  0
LINE
  5
B0
330
1F
100
AcDbEntity
  8
0
  6
Continuous
 62
     7
100
AcDbLine
 10
-47.27073617494295
 20
98.20618803085023
 30
0.0
 11
-46.29676644429139
 21
99.70618803085023
 31
0.0
  0
LINE
  5
B1
330
1F
100
AcDbEntity
  8
0
  6
Continuous
 62
     7
100
AcDbLine
 10
-46.24440124950672
 20
96.70618803085023
 30
0.0
 11
-47.27073617494295
 21
98.20618803085023
 31
0.0
  0
LINE
  5
B2
330
1F
100
AcDbEntity
  8
0
  6
Continuous
 62
     7
100
AcDbLine
 10
-47.21837098015828
 20
95.20618803085023
 30
0.0
 11
-46.24440124950672
 21
96.70618803085023
 31
0.0
  0
LINE
  5
B3
330
1F
100
AcDbEntity
  8
0
  6
Continuous
 62
     7
100
AcDbLine
 10
-46.19203605472228
 20
93.70618803085023
 30
0.0
 11
-47.21837098015828
 21
95.20618803085023
 31
0.0
  0
LINE
  5
B4
330
1F
100
AcDbEntity
  8
0
  6
Continuous
 62
     7
100
AcDbLine
 10
-47.16600578537361
 20
92.20618803085023
 30
0.0
 11
-46.19203605472228
 21
93.70618803085023
 31
0.0
  0
LINE
  5
B5
330
1F
100
AcDbEntity
  8
0
  6
Continuous
 62
     7
100
AcDbLine
 10
-46.13967085993738
 20
90.70618803085023
 30
0.0
 11
-47.16600578537361
 21
92.20618803085023
 31
0.0
  0
LINE
  5
B6
330
1F
100
AcDbEntity
  8
0
  6
Continuous
 62
     7
100
AcDbLine
 10
-47.11364059058917
 20
89.20618803085023
 30
0.0
 11
-46.13967085993738
 21
90.70618803085023
 31
0.0
  0
LINE
  5
B7
330
1F
100
AcDbEntity
  8
0
  6
Continuous
 62
     7
100
AcDbLine
 10
-46.08730566515294
 20
87.70618803085023
 30
0.0
 11
-47.11364059058917
 21
89.20618803085023
 31
0.0
  0
LINE
  5
B8
330
1F
100
AcDbEntity
  8
0
  6
Continuous
 62
     7
100
AcDbLine
 10
-47.06127539580427
 20
86.20618803085023
 30
0.0
 11
-46.08730566515294
 21
87.70618803085023
 31
0.0
  0
LINE
  5
B9
330
1F
100
AcDbEntity
  8
0
  6
Continuous
 62
     7
100
AcDbLine
 10
-46.03494047036827
 20
84.70618803085023
 30
0.0
 11
-47.06127539580427
 21
86.20618803085023
 31
0.0
  0
LINE
  5
BA
330
1F
100
AcDbEntity
  8
0
  6
Continuous
 62
     4
100
AcDbLine
 10
-65.82976880562376
 20
99.70618803085023
 30
0.0
 11
-64.80276880562371
 21
101.2061880308502
 31
0.0
  0
LINE
  5
BB
330
1F
100
AcDbEntity
  8
0
  6
Continuous
 62
     4
100
AcDbLine
 10
-64.80276880562371
 20
98.20618803085023
 30
0.0
 11
-65.82976880562376
 21
99.70618803085023
 31
0.0
  0
LINE
  5
BC
330
1F
100
AcDbEntity
  8
0
  6
Continuous
 62
     4
100
AcDbLine
 10
-65.82976880562376
 20
96.70618803085023
 30
0.0
 11
-64.80276880562371
 21
98.20618803085023
 31
0.0
  0
LINE
  5
BD
330
1F
100
AcDbEntity
  8
0
  6
Continuous
 62
     4
100
AcDbLine
 10
-64.80276880562371
 20
95.20618803085023
 30
0.0
 11
-65.82976880562376
 21
96.70618803085023
 31
0.0
  0
LINE
  5
BE
330
1F
100
AcDbEntity
  8
0
  6
Continuous
 62
     4
100
AcDbLine
 10
-65.82976880562376
 20
93.70618803085023
 30
0.0
 11
-64.80276880562371
 21
95.20618803085023
 31
0.0
  0
LINE
  5
BF
330
1F
100
AcDbEntity
  8
0
  6
Continuous
 62
     4
100
AcDbLine
 10
-64.80276880562394
 20
92.20618803085023
 30
0.0
 11
-65.82976880562376
 21
93.70618803085023
 31
0.0
  0
LINE
  5
C0
330
1F
100
AcDbEntity
  8
0
  6
Continuous
 62
     4
100
AcDbLine
 10
-65.82976880562376
 20
90.70618803085023
 30
0.0
 11
-64.80276880562394
 21
92.20618803085023
 31
0.0
  0
LINE
  5
C1
330
1F
100
AcDbEntity
  8
0
  6
Continuous
 62
     4
100
AcDbLine
 10
-64.80276880562371
 20
89.20618803085023
 30
0.0
 11
-65.82976880562376
 21
90.70618803085023
 31
0.0
  0
LINE
  5
C2
330
1F
100
AcDbEntity
  8
0
  6
Continuous
 62
     4
100
AcDbLine
 10
-65.82976880562376
 20
87.70618803085023
 30
0.0
 11
-64.80276880562371
 21
89.20618803085023
 31
0.0
  0
LINE
  5
C3
330
1F
100
AcDbEntity
  8
0
  6
Continuous
 62
     4
100
AcDbLine
 10
-64.80276880562371
 20
86.20618803085023
 30
0.0
 11
-65.82976880562376
 21
87.70618803085023
 31
0.0
  0
LINE
  5
C4
330
1F
100
AcDbEntity
  8
0
  6
Continuous
 62
     4
100
AcDbLine
 10
-65.82976880562376
 20
84.70618803085023
 30
0.0
 11
-64.80276880562371
 21
86.20618803085023
 31
0.0
  0
LINE
  5
C5
330
1F
100
AcDbEntity
  8
0
  6
Continuous
 62
     7
100
AcDbLine
 10
-47.32310136972762
 20
101.2061880308502
 30
0.0
 11
-64.80276880562371
 21
101.2061880308502
 31
0.0
  0
LINE
  5
C6
330
1F
100
AcDbEntity
  8
0
  6
Continuous
 62
     7
100
AcDbLine
 10
-65.82976880562376
 20
99.70618803085023
 30
0.0
 11
-46.29676644429139
 21
99.70618803085023
 31
0.0
  0
LINE
  5
C7
330
1F
100
AcDbEntity
  8
0
  6
Continuous
 62
     7
100
AcDbLine
 10
-47.27073617494295
 20
98.20618803085023
 30
0.0
 11
-64.80276880562371
 21
98.20618803085023
 31
0.0
  0
LINE
  5
C8
330
1F
100
AcDbEntity
  8
0
  6
Continuous
 62
     7
100
AcDbLine
 10
-65.82976880562376
 20
96.70618803085023
 30
0.0
 11
-46.24440124950672
 21
96.70618803085023
 31
0.0
  0
LINE
  5
C9
330
1F
100
AcDbEntity
  8
0
  6
Continuous
 62
     7
100
AcDbLine
 10
-47.21837098015828
 20
95.20618803085023
 30
0.0
 11
-64.80276880562371
 21
95.20618803085023
 31
0.0
  0
LINE
  5
CA
330
1F
100
AcDbEntity
  8
0
  6
Continuous
 62
     7
100
AcDbLine
 10
-65.82976880562376
 20
93.70618803085023
 30
0.0
 11
-46.19203605472228
 21
93.70618803085023
 31
0.0
  0
LINE
  5
CB
330
1F
100
AcDbEntity
  8
0
  6
Continuous
 62
     7
100
AcDbLine
 10
-47.16600578537361
 20
92.20618803085023
 30
0.0
 11
-64.80276880562394
 21
92.20618803085023
 31
0.0
  0
LINE
  5
CC
330
1F
100
AcDbEntity
  8
0
  6
Continuous
 62
     7
100
AcDbLine
 10
-65.82976880562376
 20
90.70618803085023
 30
0.0
 11
-46.13967085993738
 21
90.70618803085023
 31
0.0
  0
LINE
  5
CD
330
1F
100
AcDbEntity
  8
0
  6
Continuous
 62
     7
100
AcDbLine
 10
-47.11364059058917
 20
89.20618803085023
 30
0.0
 11
-64.80276880562371
 21
89.20618803085023
 31
0.0
  0
LINE
  5
CE
330
1F
100
AcDbEntity
  8
0
  6
Continuous
 62
     7
100
AcDbLine
 10
-65.82976880562376
 20
87.70618803085023
 30
0.0
 11
-46.08730566515294
 21
87.70618803085023
 31
0.0
  0
LINE
  5
CF
330
1F
100
AcDbEntity
  8
0
  6
Continuous
 62
     7
100
AcDbLine
 10
-47.06127539580427
 20
86.20618803085023
 30
0.0
 11
-64.80276880562371
 21
86.20618803085023
 31
0.0
  0
LINE
  5
D0
330
1F
100
AcDbEntity
  8
0
  6
Continuous
 62
     7
100
AcDbLine
 10
-65.82976880562376
 20
84.70618803085023
 30
0.0
 11
-46.03494047036827
 21
84.70618803085023
 31
0.0
  0
LINE
  5
D1
330
1F
100
AcDbEntity
  8
0
  6
Continuous
 62
     7
100
AcDbLine
 10
-48.00384890192811
 20
140.2061880308502
 30
0.0
 11
-47.02987917127655
 21
141.7061880308502
 31
0.0
  0
LINE
  5
D2
330
1F
100
AcDbEntity
  8
0
  6
Continuous
 62
     7
100
AcDbLine
 10
-47.09271651092843
 20
145.3061368084886
 30
0.0
 11
-47.02987917127655
 21
141.7061880308502
 31
0.0
  0
LINE
  5
D3
330
1F
100
AcDbEntity
  8
0
  6
Continuous
 62
     7
100
AcDbLine
 10
-46.4538620286454
 20
108.7061880308502
 30
0.0
 11
-47.48019695408163
 21
110.2061880308502
 31
0.0
  0
LINE
  5
D4
330
1F
100
AcDbEntity
  8
0
  6
Continuous
 62
     7
100
AcDbLine
 10
-47.48019695408163
 20
110.2061880308502
 30
0.0
 11
-48.00384890192811
 21
140.2061880308502
 31
0.0
  0
LINE
  5
D5
330
1F
100
AcDbEntity
  8
0
  6
Continuous
 62
     7
100
AcDbLine
 10
-46.4538620286454
 20
108.7061880308502
 30
0.0
 11
-46.34913163907606
 21
102.7061880308502
 31
0.0
  0
LINE
  5
D6
330
1F
100
AcDbEntity
  8
0
  6
Continuous
 62
     7
100
AcDbLine
 10
-45.82976880562376
 20
72.95191122992713
 30
0.0
 11
-46.03494047036827
 21
84.70618803085023
 31
0.0
  0
LINE
  5
D7
330
1F
100
AcDbEntity
  8
0
  6
Continuous
 62
     7
100
AcDbLine
 10
-65.82976880562376
 20
102.7061880308502
 30
0.0
 11
-46.34913163907606
 21
102.7061880308502
 31
0.0
  0
LINE
  5
D8
330
1F
100
AcDbEntity
  8
0
  6
Continuous
 62
     7
100
AcDbLine
 10
-253.2630202266062
 20
146.2271325638519
 30
0.0
 11
-260.4079560315655
 21
105.7061880308508
 31
0.0
  0
LINE
  5
D9
330
1F
100
AcDbEntity
  8
0
  6
Continuous
 62
     7
100
AcDbLine
 10
-255.8365460368109
 20
110.2061880308508
 30
0.0
 11
-250.5654943832606
 21
140.2061880308508
 31
0.0
  0
LINE
  5
DA
330
1F
100
AcDbEntity
  8
0
  6
DASH_CENTER
 62
     2
100
AcDbLine
 10
-200.9796840665551
 20
82.63514197096781
 30
0.0
 11
-200.9796840665551
 21
173.5351419709679
 31
0.0
  0
LINE
  5
DB
330
1F
100
AcDbEntity
  8
0
  6
Continuous
 62
     7
100
AcDbLine
 10
-141.322594265593
 20
84.70618803085083
 30
0.0
 11
-260.636773867517
 21
84.70618803085083
 31
0.0
  0
LINE
  5
DC
330
1F
100
AcDbEntity
  8
0
  6
Continuous
 62
     7
100
AcDbLine
 10
-260.3239287017152
 20
102.7061880308508
 30
0.0
 11
-141.6354394313949
 21
102.7061880308508
 31
0.0
  0
LINE
  5
DD
330
1F
100
AcDbEntity
  8
0
  6
Continuous
 62
     7
100
AcDbLine
 10
-142.609520026695
 20
101.2061880308508
 30
0.0
 11
-259.349848106415
 21
101.2061880308508
 31
0.0
  0
LINE
  5
DE
330
1F
100
AcDbEntity
  8
0
  6
Continuous
 62
     7
100
AcDbLine
 10
-260.3760695626821
 20
99.70618803085083
 30
0.0
 11
-141.583298570428
 21
99.70618803085083
 31
0.0
  0
LINE
  5
DF
330
1F
100
AcDbEntity
  8
0
  6
Continuous
 62
     7
100
AcDbLine
 10
-142.557379165728
 20
98.20618803085083
 30
0.0
 11
-259.401988967382
 21
98.20618803085083
 31
0.0
  0
LINE
  5
E0
330
1F
100
AcDbEntity
  8
0
  6
Continuous
 62
     7
100
AcDbLine
 10
-260.428210423649
 20
96.70618803085083
 30
0.0
 11
-141.531157709461
 21
96.70618803085083
 31
0.0
  0
LINE
  5
E1
330
1F
100
AcDbEntity
  8
0
  6
Continuous
 62
     7
100
AcDbLine
 10
-142.5052383047611
 20
95.20618803085083
 30
0.0
 11
-259.4541298283489
 21
95.20618803085083
 31
0.0
  0
LINE
  5
E2
330
1F
100
AcDbEntity
  8
0
  6
Continuous
 62
     7
100
AcDbLine
 10
-141.479016848494
 20
93.70618803085083
 30
0.0
 11
-260.4803512846161
 21
93.70618803085083
 31
0.0
  0
LINE
  5
E3
330
1F
100
AcDbEntity
  8
0
  6
Continuous
 62
     7
100
AcDbLine
 10
-259.506270689316
 20
92.20618803085083
 30
0.0
 11
-142.453097443794
 21
92.20618803085083
 31
0.0
  0
LINE
  5
E4
330
1F
100
AcDbEntity
  8
0
  6
Continuous
 62
     7
100
AcDbLine
 10
-141.4268759875271
 20
90.70618803085083
 30
0.0
 11
-260.5324921455829
 21
90.70618803085083
 31
0.0
  0
LINE
  5
E5
330
1F
100
AcDbEntity
  8
0
  6
Continuous
 62
     7
100
AcDbLine
 10
-259.558411550283
 20
89.20618803085083
 30
0.0
 11
-142.400956582827
 21
89.20618803085083
 31
0.0
  0
LINE
  5
E6
330
1F
100
AcDbEntity
  8
0
  6
Continuous
 62
     7
100
AcDbLine
 10
-141.37473512656
 20
87.70618803085083
 30
0.0
 11
-260.5846330065501
 21
87.70618803085083
 31
0.0
  0
LINE
  5
E7
330
1F
100
AcDbEntity
  8
0
  6
Continuous
 62
     7
100
AcDbLine
 10
-259.61055241125
 20
86.20618803085083
 30
0.0
 11
-142.34881572186
 21
86.20618803085083
 31
0.0
  0
LINE
  5
E8
330
1F
100
AcDbEntity
  8
0
  6
Continuous
 62
     4
100
AcDbLine
 10
-259.349848106415
 20
101.2061880308508
 30
0.0
 11
-260.3239287017152
 21
102.7061880308508
 31
0.0
  0
LINE
  5
E9
330
1F
100
AcDbEntity
  8
0
  6
Continuous
 62
     4
100
AcDbLine
 10
-260.3760695626821
 20
99.70618803085083
 30
0.0
 11
-259.349848106415
 21
101.2061880308508
 31
0.0
  0
LINE
  5
EA
330
1F
100
AcDbEntity
  8
0
  6
Continuous
 62
     4
100
AcDbLine
 10
-259.401988967382
 20
98.20618803085083
 30
0.0
 11
-260.3760695626821
 21
99.70618803085083
 31
0.0
  0
LINE
  5
EB
330
1F
100
AcDbEntity
  8
0
  6
Continuous
 62
     4
100
AcDbLine
 10
-260.428210423649
 20
96.70618803085083
 30
0.0
 11
-259.401988967382
 21
98.20618803085083
 31
0.0
  0
LINE
  5
EC
330
1F
100
AcDbEntity
  8
0
  6
Continuous
 62
     4
100
AcDbLine
 10
-259.4541298283489
 20
95.20618803085083
 30
0.0
 11
-260.428210423649
 21
96.70618803085083
 31
0.0
  0
LINE
  5
ED
330
1F
100
AcDbEntity
  8
0
  6
Continuous
 62
     4
100
AcDbLine
 10
-260.4803512846161
 20
93.70618803085083
 30
0.0
 11
-259.4541298283489
 21
95.20618803085083
 31
0.0
  0
LINE
  5
EE
330
1F
100
AcDbEntity
  8
0
  6
Continuous
 62
     4
100
AcDbLine
 10
-259.506270689316
 20
92.20618803085083
 30
0.0
 11
-260.4803512846161
 21
93.70618803085083
 31
0.0
  0
LINE
  5
EF
330
1F
100
AcDbEntity
  8
0
  6
Continuous
 62
     4
100
AcDbLine
 10
-260.5324921455829
 20
90.70618803085083
 30
0.0
 11
-259.506270689316
 21
92.20618803085083
 31
0.0
  0
LINE
  5
F0
330
1F
100
AcDbEntity
  8
0
  6
Continuous
 62
     4
100
AcDbLine
 10
-259.558411550283
 20
89.20618803085083
 30
0.0
 11
-260.5324921455829
 21
90.70618803085083
 31
0.0
  0
LINE
  5
F1
330
1F
100
AcDbEntity
  8
0
  6
Continuous
 62
     4
100
AcDbLine
 10
-260.5846330065501
 20
87.70618803085083
 30
0.0
 11
-259.558411550283
 21
89.20618803085083
 31
0.0
  0
LINE
  5
F2
330
1F
100
AcDbEntity
  8
0
  6
Continuous
 62
     4
100
AcDbLine
 10
-259.61055241125
 20
86.20618803085083
 30
0.0
 11
-260.5846330065501
 21
87.70618803085083
 31
0.0
  0
LINE
  5
F3
330
1F
100
AcDbEntity
  8
0
  6
Continuous
 62
     4
100
AcDbLine
 10
-260.636773867517
 20
84.70618803085083
 30
0.0
 11
-259.61055241125
 21
86.20618803085083
 31
0.0
  0
LINE
  5
F4
330
1F
100
AcDbEntity
  8
0
  6
Continuous
 62
     7
100
AcDbLine
 10
-250.3085969675696
 20
148.7061880308509
 30
0.0
 11
-200.9796840665543
 21
148.7061880308509
 31
0.0
  0
LINE
  5
F5
330
1F
100
AcDbEntity
  8
0
  6
Continuous
 62
     7
100
AcDbLine
 10
-146.1228220962991
 20
110.2061880308508
 30
0.0
 11
-255.8365460368109
 21
110.2061880308508
 31
0.0
  0
LINE
  5
F6
330
1F
100
AcDbEntity
  8
0
  6
Continuous
 62
     7
100
AcDbLine
 10
-200.9796840665549
 20
108.7061880308499
 30
0.0
 11
-252.4093946612738
 21
108.7061880308508
 31
0.0
  0
LINE
  5
F7
330
1F
100
AcDbEntity
  8
0
  6
Continuous
 62
     7
100
AcDbLine
 10
-151.3938737498495
 20
140.2061880308508
 30
0.0
 11
-250.5654943832606
 21
140.2061880308508
 31
0.0
  0
LINE
  5
F8
330
1F
100
AcDbEntity
  8
0
  6
Continuous
 62
     7
100
AcDbLine
 10
-142.3732473825872
 20
72.70618803085083
 30
0.0
 11
-259.5861207505229
 21
72.70618803085083
 31
0.0
  0
LINE
  5
F9
330
1F
100
AcDbEntity
  8
0
  6
Continuous
 62
     7
100
AcDbLine
 10
-259.5861207505229
 20
72.70618803085083
 30
0.0
 11
-260.9796840665599
 21
72.95191084279392
 31
0.0
  0
LINE
  5
FA
330
1F
100
AcDbEntity
  8
0
  6
Continuous
 62
     7
100
AcDbLine
 10
-200.9796840665553
 20
141.7061880308529
 30
0.0
 11
-246.6112378423695
 21
141.706188030852
 31
0.0
  0
LINE
  5
FB
330
1F
100
AcDbEntity
  8
0
  6
Continuous
 62
     7
100
AcDbLine
 10
-260.9796840665599
 20
72.95191084279392
 30
0.0
 11
-260.9796840598024
 21
72.95191122992898
 31
0.0
  0
LINE
  5
FC
330
1F
100
AcDbEntity
  8
0
  6
DASH_CENTER
 62
     2
100
AcDbLine
 10
-200.979684066556
 20
148.2653595027119
 30
0.0
 11
-200.9796840665542
 21
148.2653595027119
 31
0.0
  0
LINE
  5
FD
330
1F
100
AcDbEntity
  8
0
  6
DASH_CENTER
 62
     2
100
AcDbLine
 10
-200.9796840665542
 20
148.2653595027119
 30
0.0
 11
-200.979684066556
 21
148.2653595027119
 31
0.0
  0
LINE
  5
FE
330
1F
100
AcDbEntity
  8
0
  6
DASH_CENTER
 62
     2
100
AcDbLine
 10
-200.9796840665542
 20
148.2653595027119
 30
0.0
 11
-200.9796840665554
 21
145.9061880308509
 31
0.0
  0
LINE
  5
FF
330
1F
100
AcDbEntity
  8
0
  6
Continuous
 62
     7
100
AcDbLine
 10
-260.9796840598024
 20
72.95191122992898
 30
0.0
 11
-260.4079560315655
 21
105.7061880308508
 31
0.0
  0
LINE
  5
100
330
1F
100
AcDbEntity
  8
0
  6
Continuous
 62
     4
100
AcDbLine
 10
-260.9796840598024
 20
72.95191122992898
 30
0.0
 11
-260.9796840665599
 21
72.95191122992898
 31
0.0
  0
LINE
  5
101
330
1F
100
AcDbEntity
  8
1
  6
DASH_CENTER
 62
     2
100
AcDbLine
 10
-67.32976880562319
 20
58.43625658048819
 30
0.0
 11
-67.32976880562319
 21
63.80618803085105
 31
0.0
  0
LINE
  5
102
330
1F
100
AcDbEntity
  8
1
  6
DASH_CENTER
 62
     2
100
AcDbLine
 10
-200.9796840665557
 20
45.73625658048806
 30
0.0
 11
-200.9796840665557
 21
51.10618803085092
 31
0.0
  0
LINE
  5
103
330
1F
100
AcDbEntity
  8
1
  6
DASH_CENTER
 62
     2
100
AcDbLine
 10
-200.9796840665557
 20
58.43625658048805
 30
0.0
 11
-200.9796840665557
 21
63.80618803085091
 31
0.0
  0
LINE
  5
104
102
{ACAD_REACTORS
330
1EE
102
}
330
1F
100
AcDbEntity
  8
1
  6
Continuous
 62
     7
100
AcDbLine
 10
-199.2856840665564
 20
76.94745291456923
 30
0.0
 11
-199.2856840665564
 21
80.46492314713245
 31
0.0
  0
LINE
  5
105
102
{ACAD_REACTORS
330
1EE
102
}
330
1F
100
AcDbEntity
  8
1
  6
Continuous
 62
     7
100
AcDbLine
 10
-197.9547512328119
 20
77.29629754120722
 30
0.0
 11
-198.9227512328118
 21
76.73783600274552
 31
0.0
  0
LINE
  5
106
102
{ACAD_REACTORS
330
1EE
102
}
330
1F
100
AcDbEntity
  8
1
  6
Continuous
 62
     7
100
AcDbLine
 10
-198.8016840665563
 20
77.36645415355318
 30
0.0
 11
-198.1966169003008
 21
77.71553136485468
 31
0.0
  0
LINE
  5
107
102
{ACAD_REACTORS
330
1EE
102
}
330
1F
100
AcDbEntity
  8
1
  6
Continuous
 62
     7
100
AcDbLine
 10
-198.8016840665563
 20
78.46418803085098
 30
0.0
 11
-198.8016840665563
 21
77.36645415355318
 31
0.0
  0
LINE
  5
108
102
{ACAD_REACTORS
330
1EE
102
}
330
1F
100
AcDbEntity
  8
1
  6
Continuous
 62
     7
100
AcDbLine
 10
-198.0756840665563
 20
78.46418803085074
 30
0.0
 11
-198.8016840665563
 21
78.46418803085098
 31
0.0
  0
LINE
  5
109
102
{ACAD_REACTORS
330
1EE
102
}
330
1F
100
AcDbEntity
  8
1
  6
Continuous
 62
     7
100
AcDbLine
 10
-198.8016840665563
 20
78.94818803085084
 30
0.0
 11
-198.0756840665563
 21
78.94818803085084
 31
0.0
  0
LINE
  5
10A
102
{ACAD_REACTORS
330
1EE
102
}
330
1F
100
AcDbEntity
  8
1
  6
Continuous
 62
     7
100
AcDbLine
 10
-198.8016840665563
 20
80.04592190814839
 30
0.0
 11
-198.8016840665563
 21
78.94818803085084
 31
0.0
  0
LINE
  5
10B
102
{ACAD_REACTORS
330
1EE
102
}
330
1F
100
AcDbEntity
  8
1
  6
Continuous
 62
     7
100
AcDbLine
 10
-198.1966169003008
 20
79.69684469684725
 30
0.0
 11
-198.8016840665563
 21
80.04592190814839
 31
0.0
  0
LINE
  5
10C
102
{ACAD_REACTORS
330
1EE
102
}
330
1F
100
AcDbEntity
  8
1
  6
Continuous
 62
     7
100
AcDbLine
 10
-198.9227512328118
 20
80.67454005895632
 30
0.0
 11
-197.9547512328119
 21
80.11607852049448
 31
0.0
  0
LINE
  5
10D
102
{ACAD_REACTORS
330
1F1
102
}
330
1F
100
AcDbEntity
  8
1
  6
Continuous
 62
     7
100
AcDbLine
 10
-204.1256840665564
 20
77.50591445303095
 30
0.0
 11
-204.1256840665564
 21
79.90646160867097
 31
0.0
  0
LINE
  5
10E
102
{ACAD_REACTORS
330
1F1
102
}
330
1F
100
AcDbEntity
  8
1
  6
Continuous
 62
     7
100
AcDbLine
 10
-203.6416840665563
 20
79.90646160867097
 30
0.0
 11
-203.6416840665563
 21
77.50591445303095
 31
0.0
  0
LINE
  5
10F
102
{ACAD_REACTORS
330
1F0
102
}
330
1F
100
AcDbEntity
  8
1
  6
Continuous
 62
     7
100
AcDbLine
 10
-201.3426169003007
 20
75.7605283104377
 30
0.0
 11
-202.9155497340453
 21
76.66798956067521
 31
0.0
  0
LINE
  5
110
102
{ACAD_REACTORS
330
1F0
102
}
330
1F
100
AcDbEntity
  8
1
  6
Continuous
 62
     7
100
AcDbLine
 10
-202.6736840665563
 20
77.08722338432253
 30
0.0
 11
-201.1007512328118
 21
76.17976213408528
 31
0.0
  0
LINE
  5
111
102
{ACAD_REACTORS
330
1F0
102
}
330
1F
100
AcDbEntity
  8
1
  6
Continuous
 62
     7
100
AcDbLine
 10
-202.6736840665563
 20
80.46492314713245
 30
0.0
 11
-202.6736840665563
 21
77.08722338432253
 31
0.0
  0
LINE
  5
112
102
{ACAD_REACTORS
330
1F0
102
}
330
1F
100
AcDbEntity
  8
1
  6
Continuous
 62
     7
100
AcDbLine
 10
-203.1576840665562
 20
77.08722338432253
 30
0.0
 11
-203.1576840665562
 21
80.46492314713245
 31
0.0
  0
LINE
  5
113
102
{ACAD_REACTORS
330
1EF
102
}
330
1F
100
AcDbEntity
  8
1
  6
Continuous
 62
     7
100
AcDbLine
 10
-200.1286429208667
 20
81.14823453451658
 30
0.0
 11
-200.9796840665562
 21
79.67418803085098
 31
0.0
  0
LINE
  5
114
102
{ACAD_REACTORS
330
1EF
102
}
330
1F
100
AcDbEntity
  8
1
  6
Continuous
 62
     7
100
AcDbLine
 10
-199.7696840665562
 20
76.3889913761079
 30
0.0
 11
-199.7696840665562
 21
81.05205179938798
 31
0.0
  0
LINE
  5
115
102
{ACAD_REACTORS
330
1EF
102
}
330
1F
100
AcDbEntity
  8
1
  6
Continuous
 62
     7
100
AcDbLine
 10
-200.2536840665563
 20
79.96365691714581
 30
0.0
 11
-200.2536840665563
 21
76.3889913761079
 31
0.0
  0
LINE
  5
116
102
{ACAD_REACTORS
330
1EF
102
}
330
1F
100
AcDbEntity
  8
1
  6
Continuous
 62
     7
100
AcDbLine
 10
-201.7056840665564
 20
77.50653479358226
 30
0.0
 11
-201.7056840665564
 21
79.96365691714581
 31
0.0
  0
LINE
  5
117
102
{ACAD_REACTORS
330
1EF
102
}
330
1F
100
AcDbEntity
  8
1
  6
Continuous
 62
     7
100
AcDbLine
 10
-202.1896840665562
 20
81.05205179938798
 30
0.0
 11
-202.1896840665562
 21
77.50653479358226
 31
0.0
  0
LINE
  5
118
102
{ACAD_REACTORS
330
1EF
102
}
330
1F
100
AcDbEntity
  8
1
  6
Continuous
 62
     7
100
AcDbLine
 10
-201.8307252122456
 20
81.14823453451658
 30
0.0
 11
-200.9796840665562
 21
79.67418803085098
 31
0.0
  0
LINE
  5
119
330
1F
100
AcDbEntity
  8
1
  6
Continuous
 62
     7
100
AcDbLine
 10
-200.9796840665562
 20
75.07618803085083
 30
0.0
 11
-207.0900160763089
 21
78.6013795749389
 31
0.0
  0
LINE
  5
11A
330
1F
100
AcDbEntity
  8
1
  6
Continuous
 62
     7
100
AcDbLine
 10
-194.8693520568035
 20
78.6013795749389
 30
0.0
 11
-200.9796840665562
 21
75.07618803085083
 31
0.0
  0
LINE
  5
11B
330
1F
100
AcDbEntity
  8
1
  6
Continuous
 62
     7
100
AcDbLine
 10
-200.9796840665562
 20
82.33618803085082
 30
0.0
 11
-194.8693520568035
 21
78.81099648676278
 31
0.0
  0
LINE
  5
11C
330
1F
100
AcDbEntity
  8
1
  6
Continuous
 62
     7
100
AcDbLine
 10
-207.0900160763089
 20
78.81099648676278
 30
0.0
 11
-200.9796840665562
 21
82.33618803085082
 31
0.0
  0
LINE
  5
11D
102
{ACAD_REACTORS
330
1EF
102
}
330
1F
100
AcDbEntity
  8
1
  6
Continuous
 62
     7
100
AcDbLine
 10
-201.0844731404141
 20
78.88768803085097
 30
0.0
 11
-201.7056840665564
 21
79.96365691714581
 31
0.0
  0
LINE
  5
11E
102
{ACAD_REACTORS
330
1EF
102
}
330
1F
100
AcDbEntity
  8
1
  6
Continuous
 62
     7
100
AcDbLine
 10
-200.2536840665563
 20
79.96365691714581
 30
0.0
 11
-200.8748949926983
 21
78.88768803085097
 31
0.0
  0
LINE
  5
11F
330
1F
100
AcDbEntity
  8
1
  6
DASH_CENTER
 62
     2
100
AcDbLine
 10
-200.9796840665561
 20
69.7351419709677
 30
0.0
 11
-200.9796840665564
 21
74.7377288453632
 31
0.0
  0
LINE
  5
120
330
1F
100
AcDbEntity
  8
1
  6
Continuous
 62
     7
100
AcDbLine
 10
-269.981232708526
 20
75.30618803085085
 30
0.0
 11
-269.981232708526
 21
83.1061880308508
 31
0.0
  0
LINE
  5
121
330
1F
100
AcDbEntity
  8
1
  6
Continuous
 62
     7
100
AcDbLine
 10
-260.9474561968743
 20
74.80618803085102
 30
0.0
 11
-269.481232708526
 21
74.80618803085085
 31
0.0
  0
LINE
  5
122
330
1F
100
AcDbEntity
  8
1
  6
Continuous
 62
     7
100
AcDbLine
 10
-268.6812327085258
 20
83.50618803085084
 30
0.0
 11
-268.6812327085258
 21
74.90618803085093
 31
0.0
  0
LINE
  5
123
330
1F
100
AcDbEntity
  8
1
  6
Continuous
 62
     7
100
AcDbLine
 10
-269.481232708526
 20
83.60618803085075
 30
0.0
 11
-260.7945096713712
 21
83.6061880308512
 31
0.0
  0
LINE
  5
124
330
1F
100
AcDbEntity
  8
1
  6
Continuous
 62
     7
100
AcDbLine
 10
-133.2781354245843
 20
74.90618803085093
 30
0.0
 11
-133.2781354245843
 21
83.50618803085084
 31
0.0
  0
LINE
  5
125
330
1F
100
AcDbEntity
  8
1
  6
Continuous
 62
     7
100
AcDbLine
 10
-131.9781354245842
 20
83.1061880308508
 30
0.0
 11
-131.9781354245842
 21
75.30618803085085
 31
0.0
  0
LINE
  5
126
330
1F
100
AcDbEntity
  8
1
  6
Continuous
 62
     7
100
AcDbLine
 10
-141.1648584617393
 20
83.6061880308512
 30
0.0
 11
-132.4781354245842
 21
83.60618803085075
 31
0.0
  0
LINE
  5
127
330
1F
100
AcDbEntity
  8
1
  6
Continuous
 62
     7
100
AcDbLine
 10
-132.4781354245842
 20
74.80618803085085
 30
0.0
 11
-141.0119119362362
 21
74.80618803085102
 31
0.0
  0
LINE
  5
128
330
1F
100
AcDbEntity
  8
1
  6
DOT_CENTER
 62
     2
100
AcDbLine
 10
-258.6301639815531
 20
79.20618803085083
 30
0.0
 11
-273.5038326405233
 21
79.20618803085083
 31
0.0
  0
LINE
  5
129
330
1F
100
AcDbEntity
  8
1
  6
DOT_CENTER
 62
     2
100
AcDbLine
 10
-128.4555354925872
 20
79.20618803085083
 30
0.0
 11
-143.3292041515572
 21
79.20618803085083
 31
0.0
  0
LINE
  5
12A
330
1F
100
AcDbEntity
  8
1
  6
DOT_CENTER
 62
     2
100
AcDbLine
 10
-60.74014849828984
 20
79.20618803085097
 30
0.0
 11
-73.91938911295676
 21
79.20618803085097
 31
0.0
  0
LINE
  5
12B
330
1F
100
AcDbEntity
  8
0
  6
Continuous
 62
     4
100
AcDbLine
 10
-140.9796840665501
 20
72.95191122992898
 30
0.0
 11
-140.9796840733076
 21
72.95191122992898
 31
0.0
  0
LINE
  5
12C
330
1F
100
AcDbEntity
  8
0
  6
Continuous
 62
     7
100
AcDbLine
 10
-141.5514121015446
 20
105.7061880308508
 30
0.0
 11
-140.9796840733076
 21
72.95191122992898
 31
0.0
  0
LINE
  5
12D
330
1F
100
AcDbEntity
  8
0
  6
DASH_CENTER
 62
     2
100
AcDbLine
 10
-200.9796840665554
 20
145.9061880308509
 30
0.0
 11
-200.979684066556
 21
148.2653595027119
 31
0.0
  0
LINE
  5
12E
330
1F
100
AcDbEntity
  8
0
  6
Continuous
 62
     7
100
AcDbLine
 10
-140.9796840733076
 20
72.95191122992898
 30
0.0
 11
-140.9796840665502
 21
72.95191084279392
 31
0.0
  0
LINE
  5
12F
330
1F
100
AcDbEntity
  8
0
  6
Continuous
 62
     7
100
AcDbLine
 10
-155.3481302907406
 20
141.706188030852
 30
0.0
 11
-200.9796840665553
 21
141.7061880308529
 31
0.0
  0
LINE
  5
130
330
1F
100
AcDbEntity
  8
0
  6
Continuous
 62
     7
100
AcDbLine
 10
-140.9796840665502
 20
72.95191084279392
 30
0.0
 11
-142.3732473825872
 21
72.70618803085083
 31
0.0
  0
LINE
  5
131
330
1F
100
AcDbEntity
  8
0
  6
Continuous
 62
     7
100
AcDbLine
 10
-149.5499734718362
 20
108.7061880308508
 30
0.0
 11
-200.9796840665549
 21
108.7061880308499
 31
0.0
  0
LINE
  5
132
330
1F
100
AcDbEntity
  8
0
  6
Continuous
 62
     7
100
AcDbLine
 10
-200.9796840665558
 20
148.7061880308509
 30
0.0
 11
-151.6507711655405
 21
148.7061880308509
 31
0.0
  0
LINE
  5
133
330
1F
100
AcDbEntity
  8
0
  6
Continuous
 62
     4
100
AcDbLine
 10
-142.34881572186
 20
86.20618803085083
 30
0.0
 11
-141.322594265593
 21
84.70618803085083
 31
0.0
  0
LINE
  5
134
330
1F
100
AcDbEntity
  8
0
  6
Continuous
 62
     4
100
AcDbLine
 10
-141.37473512656
 20
87.70618803085083
 30
0.0
 11
-142.34881572186
 21
86.20618803085083
 31
0.0
  0
LINE
  5
135
330
1F
100
AcDbEntity
  8
0
  6
Continuous
 62
     4
100
AcDbLine
 10
-142.400956582827
 20
89.20618803085083
 30
0.0
 11
-141.37473512656
 21
87.70618803085083
 31
0.0
  0
LINE
  5
136
330
1F
100
AcDbEntity
  8
0
  6
Continuous
 62
     4
100
AcDbLine
 10
-141.4268759875271
 20
90.70618803085083
 30
0.0
 11
-142.400956582827
 21
89.20618803085083
 31
0.0
  0
LINE
  5
137
330
1F
100
AcDbEntity
  8
0
  6
Continuous
 62
     4
100
AcDbLine
 10
-142.453097443794
 20
92.20618803085083
 30
0.0
 11
-141.4268759875271
 21
90.70618803085083
 31
0.0
  0
LINE
  5
138
330
1F
100
AcDbEntity
  8
0
  6
Continuous
 62
     4
100
AcDbLine
 10
-141.479016848494
 20
93.70618803085083
 30
0.0
 11
-142.453097443794
 21
92.20618803085083
 31
0.0
  0
LINE
  5
139
330
1F
100
AcDbEntity
  8
0
  6
Continuous
 62
     4
100
AcDbLine
 10
-142.5052383047611
 20
95.20618803085083
 30
0.0
 11
-141.479016848494
 21
93.70618803085083
 31
0.0
  0
LINE
  5
13A
330
1F
100
AcDbEntity
  8
0
  6
Continuous
 62
     4
100
AcDbLine
 10
-141.531157709461
 20
96.70618803085083
 30
0.0
 11
-142.5052383047611
 21
95.20618803085083
 31
0.0
  0
LINE
  5
13B
330
1F
100
AcDbEntity
  8
0
  6
Continuous
 62
     4
100
AcDbLine
 10
-142.557379165728
 20
98.20618803085083
 30
0.0
 11
-141.531157709461
 21
96.70618803085083
 31
0.0
  0
LINE
  5
13C
330
1F
100
AcDbEntity
  8
0
  6
Continuous
 62
     4
100
AcDbLine
 10
-141.583298570428
 20
99.70618803085083
 30
0.0
 11
-142.557379165728
 21
98.20618803085083
 31
0.0
  0
LINE
  5
13D
330
1F
100
AcDbEntity
  8
0
  6
Continuous
 62
     4
100
AcDbLine
 10
-142.609520026695
 20
101.2061880308508
 30
0.0
 11
-141.583298570428
 21
99.70618803085083
 31
0.0
  0
LINE
  5
13E
330
1F
100
AcDbEntity
  8
0
  6
Continuous
 62
     4
100
AcDbLine
 10
-141.6354394313949
 20
102.7061880308508
 30
0.0
 11
-142.609520026695
 21
101.2061880308508
 31
0.0
  0
LINE
  5
13F
330
1F
100
AcDbEntity
  8
0
  6
Continuous
 62
     7
100
AcDbLine
 10
-151.3938737498495
 20
140.2061880308508
 30
0.0
 11
-146.1228220962991
 21
110.2061880308508
 31
0.0
  0
LINE
  5
140
330
1F
100
AcDbEntity
  8
0
  6
Continuous
 62
     7
100
AcDbLine
 10
-141.5514121015446
 20
105.7061880308508
 30
0.0
 11
-148.6963479065038
 21
146.2271325638519
 31
0.0
  0
LINE
  5
141
330
1F
100
AcDbEntity
  8
0
  6
Continuous
 62
     2
100
AcDbLine
 10
-194.4796840665557
 20
151.5061880308515
 30
0.0
 11
-194.4796840665557
 21
145.9061880308502
 31
0.0
  0
LINE
  5
142
330
1F
100
AcDbEntity
  8
0
  6
Continuous
 62
     2
100
AcDbLine
 10
-157.4796840665557
 20
151.5061880308515
 30
0.0
 11
-157.4796840665557
 21
145.9061880308497
 31
0.0
  0
LINE
  5
143
330
1F
100
AcDbEntity
  8
0
  6
DOT_CENTER
 62
     2
100
AcDbLine
 10
-175.9796840665557
 20
145.6751367935853
 30
0.0
 11
-175.9796840665557
 21
160.0751367935854
 31
0.0
  0
LINE
  5
144
330
1F
100
AcDbEntity
  8
0
  6
DOT_CENTER
 62
     2
100
AcDbLine
 10
-175.9796840665557
 20
166.7751367935853
 30
0.0
 11
-175.9796840665557
 21
171.7751367935854
 31
0.0
  0
LINE
  5
145
330
1F
100
AcDbEntity
  8
0
  6
DOT_CENTER
 62
     2
100
AcDbLine
 10
-225.9796840665544
 20
171.7751367935854
 30
0.0
 11
-225.9796840665544
 21
166.7751367935853
 31
0.0
  0
LINE
  5
146
330
1F
100
AcDbEntity
  8
0
  6
Continuous
 62
     4
100
AcDbLine
 10
-64.80276880562371
 20
101.2061880308502
 30
0.0
 11
-65.82976880562376
 21
102.7061880308502
 31
0.0
  0
LINE
  5
147
330
1F
100
AcDbEntity
  8
0
  6
Continuous
 62
     4
100
AcDbLine
 10
-68.82976880562398
 20
102.7061880308502
 30
0.0
 11
-69.85676880562403
 21
101.2061880308502
 31
0.0
  0
LINE
  5
148
330
1F
100
AcDbEntity
  8
0
  6
Continuous
 62
     7
100
AcDbLine
 10
-88.31040597217168
 20
102.7061880308502
 30
0.0
 11
-68.82976880562398
 21
102.7061880308502
 31
0.0
  0
LINE
  5
149
330
1F
100
AcDbEntity
  8
0
  6
Continuous
 62
     7
100
AcDbLine
 10
-88.62459714087947
 20
84.70618803085023
 30
0.0
 11
-88.82976880562398
 21
72.95191122992713
 31
0.0
  0
LINE
  5
14A
330
1F
100
AcDbEntity
  8
0
  6
Continuous
 62
     7
100
AcDbLine
 10
-88.31040597217168
 20
102.7061880308502
 30
0.0
 11
-88.20567558260234
 21
108.7061880308502
 31
0.0
  0
LINE
  5
14B
330
1F
100
AcDbEntity
  8
0
  6
Continuous
 62
     7
100
AcDbLine
 10
-86.65568870931963
 20
140.2061880308502
 30
0.0
 11
-87.17934065716611
 21
110.2061880308502
 31
0.0
  0
LINE
  5
14C
330
1F
100
AcDbEntity
  8
0
  6
Continuous
 62
     7
100
AcDbLine
 10
-87.17934065716611
 20
110.2061880308502
 30
0.0
 11
-88.20567558260234
 21
108.7061880308502
 31
0.0
  0
LINE
  5
14D
330
1F
100
AcDbEntity
  8
0
  6
Continuous
 62
     7
100
AcDbLine
 10
-87.6296584399712
 20
141.7061880308502
 30
0.0
 11
-87.56682110031932
 21
145.3061368084886
 31
0.0
  0
LINE
  5
14E
330
1F
100
AcDbEntity
  8
0
  6
Continuous
 62
     7
100
AcDbLine
 10
-87.6296584399712
 20
141.7061880308502
 30
0.0
 11
-86.65568870931963
 21
140.2061880308502
 31
0.0
  0
LINE
  5
14F
330
1F
100
AcDbEntity
  8
0
  6
Continuous
 62
     7
100
AcDbLine
 10
-88.62459714087947
 20
84.70618803085023
 30
0.0
 11
-68.82976880562398
 21
84.70618803085023
 31
0.0
  0
LINE
  5
150
330
1F
100
AcDbEntity
  8
0
  6
Continuous
 62
     7
100
AcDbLine
 10
-69.85676880562403
 20
86.20618803085023
 30
0.0
 11
-87.59826221544347
 21
86.20618803085023
 31
0.0
  0
LINE
  5
151
330
1F
100
AcDbEntity
  8
0
  6
Continuous
 62
     7
100
AcDbLine
 10
-88.5722319460948
 20
87.70618803085023
 30
0.0
 11
-68.82976880562398
 21
87.70618803085023
 31
0.0
  0
LINE
  5
152
330
1F
100
AcDbEntity
  8
0
  6
Continuous
 62
     7
100
AcDbLine
 10
-69.85676880562403
 20
89.20618803085023
 30
0.0
 11
-87.54589702065857
 21
89.20618803085023
 31
0.0
  0
LINE
  5
153
330
1F
100
AcDbEntity
  8
0
  6
Continuous
 62
     7
100
AcDbLine
 10
-88.51986675131036
 20
90.70618803085023
 30
0.0
 11
-68.82976880562398
 21
90.70618803085023
 31
0.0
  0
LINE
  5
154
330
1F
100
AcDbEntity
  8
0
  6
Continuous
 62
     7
100
AcDbLine
 10
-69.8567688056238
 20
92.20618803085023
 30
0.0
 11
-87.49353182587413
 21
92.20618803085023
 31
0.0
  0
LINE
  5
155
330
1F
100
AcDbEntity
  8
0
  6
Continuous
 62
     7
100
AcDbLine
 10
-88.46750155652546
 20
93.70618803085023
 30
0.0
 11
-68.82976880562398
 21
93.70618803085023
 31
0.0
  0
LINE
  5
156
330
1F
100
AcDbEntity
  8
0
  6
Continuous
 62
     7
100
AcDbLine
 10
-69.85676880562403
 20
95.20618803085023
 30
0.0
 11
-87.44116663108946
 21
95.20618803085023
 31
0.0
  0
LINE
  5
157
330
1F
100
AcDbEntity
  8
0
  6
Continuous
 62
     7
100
AcDbLine
 10
-88.41513636174102
 20
96.70618803085023
 30
0.0
 11
-68.82976880562398
 21
96.70618803085023
 31
0.0
  0
LINE
  5
158
330
1F
100
AcDbEntity
  8
0
  6
Continuous
 62
     7
100
AcDbLine
 10
-69.85676880562403
 20
98.20618803085023
 30
0.0
 11
-87.38880143630479
 21
98.20618803085023
 31
0.0
  0
LINE
  5
159
330
1F
100
AcDbEntity
  8
0
  6
Continuous
 62
     7
100
AcDbLine
 10
-88.36277116695635
 20
99.70618803085023
 30
0.0
 11
-68.82976880562398
 21
99.70618803085023
 31
0.0
  0
LINE
  5
15A
330
1F
100
AcDbEntity
  8
0
  6
Continuous
 62
     7
100
AcDbLine
 10
-69.85676880562403
 20
101.2061880308502
 30
0.0
 11
-87.33643624152012
 21
101.2061880308502
 31
0.0
  0
LINE
  5
15B
330
1F
100
AcDbEntity
  8
0
  6
Continuous
 62
     4
100
AcDbLine
 10
-69.85676880562403
 20
86.20618803085023
 30
0.0
 11
-68.82976880562398
 21
84.70618803085023
 31
0.0
  0
LINE
  5
15C
330
1F
100
AcDbEntity
  8
0
  6
Continuous
 62
     4
100
AcDbLine
 10
-68.82976880562398
 20
87.70618803085023
 30
0.0
 11
-69.85676880562403
 21
86.20618803085023
 31
0.0
  0
LINE
  5
15D
330
1F
100
AcDbEntity
  8
0
  6
Continuous
 62
     4
100
AcDbLine
 10
-69.85676880562403
 20
89.20618803085023
 30
0.0
 11
-68.82976880562398
 21
87.70618803085023
 31
0.0
  0
LINE
  5
15E
330
1F
100
AcDbEntity
  8
0
  6
Continuous
 62
     4
100
AcDbLine
 10
-68.82976880562398
 20
90.70618803085023
 30
0.0
 11
-69.85676880562403
 21
89.20618803085023
 31
0.0
  0
LINE
  5
15F
330
1F
100
AcDbEntity
  8
0
  6
Continuous
 62
     4
100
AcDbLine
 10
-69.8567688056238
 20
92.20618803085023
 30
0.0
 11
-68.82976880562398
 21
90.70618803085023
 31
0.0
  0
LINE
  5
160
330
1F
100
AcDbEntity
  8
0
  6
Continuous
 62
     4
100
AcDbLine
 10
-68.82976880562398
 20
93.70618803085023
 30
0.0
 11
-69.8567688056238
 21
92.20618803085023
 31
0.0
  0
LINE
  5
161
330
1F
100
AcDbEntity
  8
0
  6
Continuous
 62
     4
100
AcDbLine
 10
-69.85676880562403
 20
95.20618803085023
 30
0.0
 11
-68.82976880562398
 21
93.70618803085023
 31
0.0
  0
LINE
  5
162
330
1F
100
AcDbEntity
  8
0
  6
Continuous
 62
     4
100
AcDbLine
 10
-68.82976880562398
 20
96.70618803085023
 30
0.0
 11
-69.85676880562403
 21
95.20618803085023
 31
0.0
  0
LINE
  5
163
330
1F
100
AcDbEntity
  8
0
  6
Continuous
 62
     4
100
AcDbLine
 10
-69.85676880562403
 20
98.20618803085023
 30
0.0
 11
-68.82976880562398
 21
96.70618803085023
 31
0.0
  0
LINE
  5
164
330
1F
100
AcDbEntity
  8
0
  6
Continuous
 62
     4
100
AcDbLine
 10
-68.82976880562398
 20
99.70618803085023
 30
0.0
 11
-69.85676880562403
 21
98.20618803085023
 31
0.0
  0
LINE
  5
165
330
1F
100
AcDbEntity
  8
0
  6
Continuous
 62
     4
100
AcDbLine
 10
-69.85676880562403
 20
101.2061880308502
 30
0.0
 11
-68.82976880562398
 21
99.70618803085023
 31
0.0
  0
LINE
  5
166
330
1F
100
AcDbEntity
  8
0
  6
Continuous
 62
     7
100
AcDbLine
 10
-87.59826221544347
 20
86.20618803085023
 30
0.0
 11
-88.62459714087947
 21
84.70618803085023
 31
0.0
  0
LINE
  5
167
330
1F
100
AcDbEntity
  8
0
  6
Continuous
 62
     7
100
AcDbLine
 10
-88.5722319460948
 20
87.70618803085023
 30
0.0
 11
-87.59826221544347
 21
86.20618803085023
 31
0.0
  0
LINE
  5
168
330
1F
100
AcDbEntity
  8
0
  6
Continuous
 62
     7
100
AcDbLine
 10
-87.54589702065857
 20
89.20618803085023
 30
0.0
 11
-88.5722319460948
 21
87.70618803085023
 31
0.0
  0
LINE
  5
169
330
1F
100
AcDbEntity
  8
0
  6
Continuous
 62
     7
100
AcDbLine
 10
-88.51986675131036
 20
90.70618803085023
 30
0.0
 11
-87.54589702065857
 21
89.20618803085023
 31
0.0
  0
LINE
  5
16A
330
1F
100
AcDbEntity
  8
0
  6
Continuous
 62
     7
100
AcDbLine
 10
-87.49353182587413
 20
92.20618803085023
 30
0.0
 11
-88.51986675131036
 21
90.70618803085023
 31
0.0
  0
LINE
  5
16B
330
1F
100
AcDbEntity
  8
0
  6
Continuous
 62
     7
100
AcDbLine
 10
-88.46750155652546
 20
93.70618803085023
 30
0.0
 11
-87.49353182587413
 21
92.20618803085023
 31
0.0
  0
LINE
  5
16C
330
1F
100
AcDbEntity
  8
0
  6
Continuous
 62
     7
100
AcDbLine
 10
-87.44116663108946
 20
95.20618803085023
 30
0.0
 11
-88.46750155652546
 21
93.70618803085023
 31
0.0
  0
LINE
  5
16D
330
1F
100
AcDbEntity
  8
0
  6
Continuous
 62
     7
100
AcDbLine
 10
-88.41513636174102
 20
96.70618803085023
 30
0.0
 11
-87.44116663108946
 21
95.20618803085023
 31
0.0
  0
LINE
  5
16E
330
1F
100
AcDbEntity
  8
0
  6
Continuous
 62
     7
100
AcDbLine
 10
-87.38880143630479
 20
98.20618803085023
 30
0.0
 11
-88.41513636174102
 21
96.70618803085023
 31
0.0
  0
LINE
  5
16F
330
1F
100
AcDbEntity
  8
0
  6
Continuous
 62
     7
100
AcDbLine
 10
-88.36277116695635
 20
99.70618803085023
 30
0.0
 11
-87.38880143630479
 21
98.20618803085023
 31
0.0
  0
LINE
  5
170
330
1F
100
AcDbEntity
  8
0
  6
Continuous
 62
     7
100
AcDbLine
 10
-87.33643624152012
 20
101.2061880308502
 30
0.0
 11
-88.36277116695635
 21
99.70618803085023
 31
0.0
  0
LINE
  5
171
330
1F
100
AcDbEntity
  8
0
  6
Continuous
 62
     7
100
AcDbLine
 10
-88.31040597217168
 20
102.7061880308502
 30
0.0
 11
-87.33643624152012
 21
101.2061880308502
 31
0.0
  0
LINE
  5
172
330
1F
100
AcDbEntity
  8
0
  6
Continuous
 62
     7
100
AcDbLine
 10
-88.82976880562398
 20
72.95191122992713
 30
0.0
 11
-88.81273660930162
 21
72.95004256809142
 31
0.0
  0
LINE
  5
173
330
1F
100
AcDbEntity
  8
0
  6
Continuous
 62
     7
100
AcDbLine
 10
-87.4297688056239
 20
72.70618803084886
 30
0.0
 11
-88.81273660930162
 21
72.95004256809142
 31
0.0
  0
LINE
  5
174
330
1F
100
AcDbEntity
  8
0
  6
Continuous
 62
     7
100
AcDbLine
 10
-87.4297688056239
 20
72.70618803084886
 30
0.0
 11
-67.32976880562376
 21
72.7061880308517
 31
0.0
  0
LINE
  5
175
330
1F
100
AcDbEntity
  8
0
  6
Continuous
 62
     7
100
AcDbLine
 10
-67.39516986856222
 20
148.7044754437457
 30
0.0
 11
-67.37292079083784
 21
148.7050580563501
 31
0.0
  0
LINE
  5
176
330
1F
100
AcDbEntity
  8
0
  6
Continuous
 62
     7
100
AcDbLine
 10
-68.82976880562398
 20
102.7061880308502
 30
0.0
 11
-68.82976880562398
 21
84.70618803085023
 31
0.0
  0
LINE
  5
177
330
1F
100
AcDbEntity
  8
1
  6
Continuous
 62
     7
100
AcDbLine
 10
-85.10893655473456
 20
148.2044754437457
 30
0.0
 11
-85.07976880562398
 21
148.2044754437457
 31
0.0
  0
ARC
  5
178
102
{ACAD_REACTORS
330
1EE
102
}
330
1F
100
AcDbEntity
  8
1
  6
Continuous
 62
     7
100
AcDbCircle
 10
-198.0756840665563
 20
77.50591445303095
 30
0.0
 40
0.2419999999999364
100
AcDbArc
 50
299.9816393688382
 51
119.9816393688556
  0
ARC
  5
179
102
{ACAD_REACTORS
330
1EE
102
}
330
1F
100
AcDbEntity
  8
1
  6
Continuous
 62
     7
100
AcDbCircle
 10
-198.0756840665563
 20
78.70618803085083
 30
0.0
 40
0.2420000000000897
100
AcDbArc
 50
270.0
 51
90.0
  0
ARC
  5
17A
102
{ACAD_REACTORS
330
1EE
102
}
330
1F
100
AcDbEntity
  8
1
  6
Continuous
 62
     7
100
AcDbCircle
 10
-198.0756840665563
 20
79.90646160867097
 30
0.0
 40
0.2419999999999667
100
AcDbArc
 50
240.0183606311427
 51
60.01836063113666
  0
ARC
  5
17B
102
{ACAD_REACTORS
330
1F1
102
}
330
1F
100
AcDbEntity
  8
1
  6
Continuous
 62
     7
100
AcDbCircle
 10
-203.8836840665563
 20
77.50591445303095
 30
0.0
 40
0.2420000000001039
100
AcDbArc
 50
180.0
 51
0.0
  0
ARC
  5
17C
102
{ACAD_REACTORS
330
1F1
102
}
330
1F
100
AcDbEntity
  8
1
  6
Continuous
 62
     7
100
AcDbCircle
 10
-203.8836840665563
 20
79.90646160867097
 30
0.0
 40
0.2419999999999902
100
AcDbArc
 50
0.0
 51
180.0
  0
ARC
  5
17D
102
{ACAD_REACTORS
330
1F0
102
}
330
1F
100
AcDbEntity
  8
1
  6
Continuous
 62
     7
100
AcDbCircle
 10
-201.2216840665562
 20
75.97014522226144
 30
0.0
 40
0.241999999999979
100
AcDbArc
 50
240.0183606311444
 51
60.01836063117533
  0
ARC
  5
17E
102
{ACAD_REACTORS
330
1F0
102
}
330
1F
100
AcDbEntity
  8
1
  6
Continuous
 62
     7
100
AcDbCircle
 10
-202.9156840665562
 20
80.46492314713245
 30
0.0
 40
0.241999999999905
100
AcDbArc
 50
0.0
 51
180.0
  0
ARC
  5
17F
102
{ACAD_REACTORS
330
1EF
102
}
330
1F
100
AcDbEntity
  8
1
  6
Continuous
 62
     7
100
AcDbCircle
 10
-199.9620495368134
 20
81.05205179938798
 30
0.0
 40
0.1923654702571866
100
AcDbArc
 50
0.0
 51
149.9999999999459
  0
ARC
  5
180
102
{ACAD_REACTORS
330
1EF
102
}
330
1F
100
AcDbEntity
  8
1
  6
Continuous
 62
     7
100
AcDbCircle
 10
-200.0116840665563
 20
76.3889913761079
 30
0.0
 40
0.2419999999999902
100
AcDbArc
 50
180.0
 51
0.0
  0
ARC
  5
181
102
{ACAD_REACTORS
330
1EF
102
}
330
1F
100
AcDbEntity
  8
1
  6
Continuous
 62
     7
100
AcDbCircle
 10
-201.9476840665562
 20
77.50653479358226
 30
0.0
 40
0.2419999999999902
100
AcDbArc
 50
180.0
 51
0.0
  0
ARC
  5
182
102
{ACAD_REACTORS
330
1EF
102
}
330
1F
100
AcDbEntity
  8
1
  6
Continuous
 62
     7
100
AcDbCircle
 10
-201.9973185962991
 20
81.05205179938798
 30
0.0
 40
0.1923654702570442
100
AcDbArc
 50
30.0000000000245
 51
180.0
  0
ARC
  5
183
330
1F
100
AcDbEntity
  8
1
  6
Continuous
 62
     7
100
AcDbCircle
 10
-269.481232708526
 20
83.10618803085063
 30
0.0
 40
0.5000000000001137
100
AcDbArc
 50
90.0
 51
179.9999999999804
  0
ARC
  5
184
330
1F
100
AcDbEntity
  8
1
  6
Continuous
 62
     7
100
AcDbCircle
 10
-269.481232708526
 20
75.30618803085085
 30
0.0
 40
0.5
100
AcDbArc
 50
180.0
 51
270.0
  0
ARC
  5
185
330
1F
100
AcDbEntity
  8
1
  6
Continuous
 62
     7
100
AcDbCircle
 10
-132.4781354245842
 20
75.30618803085085
 30
0.0
 40
0.5
100
AcDbArc
 50
270.0
 51
0.0
  0
ARC
  5
186
330
1F
100
AcDbEntity
  8
1
  6
Continuous
 62
     7
100
AcDbCircle
 10
-132.4781354245842
 20
83.10618803085063
 30
0.0
 40
0.5
100
AcDbArc
 50
0.00000000001954
 51
90.0
  0
CIRCLE
  5
187
330
1F
100
AcDbEntity
  8
1
  6
Continuous
 62
     7
100
AcDbCircle
 10
-67.32976880562376
 20
79.20618803085097
 30
0.0
 40
4.400000000000091
  0
SPLINE
  5
188
330
1F
100
AcDbEntity
  8
0
  6
Continuous
 62
     7
100
AcDbSpline
210
0.0
220
0.0
230
1.0
 70
    24
 71
     3
 72
    44
 73
    40
 74
    38
 42
0.000000001
 43
0.0000000001
 44
0.00000001
 40
0.0
 40
0.0
 40
0.0
 40
0.0
 40
0.4060368616894292
 40
0.7017496155551741
 40
0.9055596422601669
 40
1.035888322466957
 40
1.111157036838179
 40
1.149787166036516
 40
1.170200090724697
 40
1.340630723107046
 40
1.527572168704229
 40
1.680171600758259
 40
1.841312411615076
 40
1.952349981481732
 40
2.066748277515886
 40
2.126431509118093
 40
2.18694724529663
 40
2.310876683182526
 40
2.437818057863196
 40
2.56763831891991
 40
2.700204415933839
 40
2.835203822248811
 40
2.972464869239705
 40
3.111845085805098
 40
3.253202000843029
 40
3.39668039289394
 40
3.541627172972616
 40
3.687890811347553
 40
3.83531977828715
 40
3.983709928693266
 40
4.132726806668913
 40
4.249106230852695
 40
4.365698042997764
 40
5.624698213715542
 40
6.883698384433313
 40
8.907418763733105
 40
10.93113914303294
 40
14.10497411267079
 40
17.27880908526143
 40
17.27880908526143
 40
17.27880908526143
 40
17.27880908526143
 10
-50.01372875147411
 20
148.2527515641035
 30
0.0
 10
-50.14902799247342
 20
148.2562944994166
 30
0.0
 10
-50.38286437363626
 20
148.2624177205537
 30
0.0
 10
-50.68461415016548
 20
148.2703193165354
 30
0.0
 10
-50.89449269230307
 20
148.2758151795789
 30
0.0
 10
-51.03091506816471
 20
148.2793875252134
 30
0.0
 10
-51.11229634586593
 20
148.2815185689685
 30
0.0
 10
-51.15705159352236
 20
148.2826905263734
 30
0.0
 10
-51.23351661064494
 20
148.2846928333147
 30
0.0
 10
-51.35940179237252
 20
148.2879892528099
 30
0.0
 10
-51.52933404421717
 20
148.2924390854289
 30
0.0
 10
-51.69617075001654
 20
148.2968078583217
 30
0.0
 10
-51.8377148340266
 20
148.3005143206041
 30
0.0
 10
-51.96652956955509
 20
148.3038874531657
 30
0.0
 10
-52.06153670099152
 20
148.3063753024579
 30
0.0
 10
-52.13970899205546
 20
148.3084223159407
 30
0.0
 10
-52.22105724170855
 20
148.3105524948258
 30
0.0
 10
-52.32481718982585
 20
148.3132695446893
 30
0.0
 10
-52.45167072992594
 20
148.3165913215411
 30
0.0
 10
-52.5814021698796
 20
148.3199884588527
 30
0.0
 10
-52.7138186999493
 20
148.3234559077236
 30
0.0
 10
-52.84871464207323
 20
148.326988282284
 30
0.0
 10
-52.98588117903812
 20
148.3305801144629
 30
0.0
 10
-53.12516615939083
 20
148.3342274200341
 30
0.0
 10
-53.26652287792061
 20
148.3379289759789
 30
0.0
 10
-53.40973448178067
 20
148.3416791038053
 30
0.0
 10
-53.55458109961596
 20
148.3454720459795
 30
0.0
 10
-53.70074412449297
 20
148.3492994594852
 30
0.0
 10
-53.84805454616016
 20
148.3531569186333
 30
0.0
 10
-53.9962823998721
 20
148.357038401585
 30
0.0
 10
-54.134163952633
 20
148.3606489571114
 30
0.0
 10
-54.26144969147239
 20
148.3639820514855
 30
0.0
 10
-54.75860307337509
 20
148.3770004709519
 30
0.0
 10
-55.63649952159182
 20
148.3999889984907
 30
0.0
 10
-57.14988765041724
 20
148.4396184613359
 30
0.0
 10
-58.91809516526466
 20
148.4859206046379
 30
0.0
 10
-61.32436222439826
 20
148.548930925123
 30
0.0
 10
-64.11386944278001
 20
148.6219767423605
 30
0.0
 10
-66.22903436087195
 20
148.6773642850117
 30
0.0
 10
-67.2866168204099
 20
148.7050580563501
 30
0.0
 11
-50.01372875147411
 21
148.2527515641035
 31
0.0
 11
-50.41962647447203
 21
148.263380370043
 31
0.0
 11
-50.71523789496262
 21
148.271121227515
 31
0.0
 11
-50.91897808106172
 21
148.2764563520486
 31
0.0
 11
-51.04926210088484
 21
148.2798679591734
 31
0.0
 11
-51.12450502254752
 21
148.2818382644187
 31
0.0
 11
-51.16312191416539
 21
148.2828494833138
 31
0.0
 11
-51.1835278438541
 21
148.2833838313882
 31
0.0
 11
-51.35390007391533
 21
148.2878451852422
 31
0.0
 11
-51.54077745934808
 21
148.2927387418002
 31
0.0
 11
-51.69332459938799
 21
148.2967333292449
 31
0.0
 11
-51.85441019131351
 21
148.300951503921
 31
0.0
 11
-51.9654097113782
 21
148.3038581286476
 31
0.0
 11
-52.07976880597346
 21
148.3068527269294
 31
0.0
 11
-52.13943158562282
 21
148.3084150517979
 31
0.0
 11
-52.19992658456999
 21
148.3099991690957
 31
0.0
 11
-52.32381355493272
 21
148.313243263585
 31
0.0
 11
-52.45071142997472
 21
148.3165662013882
 31
0.0
 11
-52.5804872048703
 21
148.3199644996511
 31
0.0
 11
-52.71300787479369
 21
148.32343467552
 31
0.0
 11
-52.84796102018381
 21
148.3269685480007
 31
0.0
 11
-52.98517503124206
 21
148.3305616233325
 31
0.0
 11
-53.12450748568834
 21
148.3342101720567
 31
0.0
 11
-53.26581596124196
 21
148.3379104647147
 31
0.0
 11
-53.40924518683136
 21
148.3416662911667
 31
0.0
 11
-53.55414229726864
 21
148.3454605555361
 31
0.0
 11
-53.70035581474772
 21
148.3492892912371
 31
0.0
 11
-53.84773426146246
 21
148.3531485316838
 31
0.0
 11
-53.99607356227016
 21
148.3570329329804
 31
0.0
 11
-54.14503937588351
 21
148.3609337400922
 31
0.0
 11
-54.26137891974525
 21
148.3639801982632
 31
0.0
 11
-54.37793077878825
 21
148.3670322161029
 31
0.0
 11
-55.63649952159176
 21
148.3999889984913
 31
0.0
 11
-56.89506826439526
 21
148.4329457808797
 31
0.0
 11
-58.91809516526462
 21
148.4859206046383
 31
0.0
 11
-60.94112206613403
 21
148.5388954283969
 31
0.0
 11
-64.1138694417961
 21
148.6219767423348
 31
0.0
 11
-67.2866168204099
 21
148.7050580563501
 31
0.0
  0
SPLINE
  5
189
330
1F
100
AcDbEntity
  8
0
  6
Continuous
 62
     7
100
AcDbSpline
210
0.0
220
0.0
230
1.0
 70
    24
 71
     3
 72
    11
 73
     7
 74
     5
 42
0.000000001
 43
0.0000000001
 44
0.00000001
 40
0.0
 40
0.0
 40
0.0
 40
0.0
 40
0.0006564079305835
 40
0.0013128158607812
 40
0.0222397966250683
 40
0.0431667773903437
 40
0.0431667773903437
 40
0.0431667773903437
 40
0.0431667773903437
 10
-67.32976880562376
 20
148.7061880308502
 30
0.0
 10
-67.32955007795844
 20
148.7061823032647
 30
0.0
 10
-67.32911262262789
 20
148.7061708480938
 30
0.0
 10
-67.32170189742727
 20
148.705976791427
 30
0.0
 10
-67.3075366300211
 20
148.7056058608443
 30
0.0
 10
-67.29359009028042
 20
148.7052406578478
 30
0.0
 10
-67.2866168204099
 20
148.7050580563501
 30
0.0
 11
-67.32976880562376
 21
148.7061880308502
 31
0.0
 11
-67.32911262262772
 21
148.7061708480939
 31
0.0
 11
-67.32845643963208
 21
148.7061536653375
 31
0.0
 11
-67.30753663002118
 21
148.7056058608438
 31
0.0
 11
-67.2866168204099
 21
148.7050580563501
 31
0.0
  0
SPLINE
  5
18A
330
1F
100
AcDbEntity
  8
0
  6
Continuous
 62
     7
100
AcDbSpline
210
0.0
220
0.0
230
1.0
 70
     8
 71
     3
 72
    27
 73
    23
 74
    21
 42
0.000000001
 43
0.0000000001
 44
0.00000001
 40
0.0
 40
0.0
 40
0.0
 40
0.0
 40
0.0002368629974922
 40
0.0004736718718035
 40
0.0007104477524671
 40
0.0009472094104332
 40
0.0011839779246363
 40
0.0014207720829781
 40
0.0016576129387906
 40
0.001894519274597
 40
0.0021315120958608
 40
0.0023686101582097
 40
0.0026058343974372
 40
0.0028432035201739
 40
0.0030807383718728
 40
0.0033184575886736
 40
0.0035563819034998
 40
0.0037945298614952
 40
0.004032922062877
 40
0.0042715769411903
 40
0.0045104921847307
 40
0.0047497088409141
 40
0.0047497088409141
 40
0.0047497088409141
 40
0.0047497088409141
 10
-260.5970073893845
 20
72.8848709383719
 30
0.0
 10
-260.5970863431864
 20
72.88487052462114
 30
0.0
 10
-260.5972442327974
 20
72.88486971185371
 30
0.0
 10
-260.5974810489072
 20
72.88487121924902
 30
0.0
 10
-260.5977178073045
 20
72.88487475101624
 30
0.0
 10
-260.5979545098955
 20
72.88488049528954
 30
0.0
 10
-260.5981911558646
 20
72.8848884016445
 30
0.0
 10
-260.5984277456795
 20
72.88489848356336
 30
0.0
 10
-260.5986642789111
 20
72.88491073737228
 30
0.0
 10
-260.5989007559201
 20
72.8849251640007
 30
0.0
 10
-260.5991371763113
 20
72.88494176309936
 30
0.0
 10
-260.599373540433
 20
72.88496053467959
 30
0.0
 10
-260.5996098478987
 20
72.88498147859701
 30
0.0
 10
-260.599846099049
 20
72.88500459479474
 30
0.0
 10
-260.6000822935148
 20
72.88502988305368
 30
0.0
 10
-260.6003184315907
 20
72.88505734352174
 30
0.0
 10
-260.6005545130673
 20
72.88508697508443
 30
0.0
 10
-260.6007905376615
 20
72.88511878111086
 30
0.0
 10
-260.6010265073111
 20
72.88515274833259
 30
0.0
 10
-260.6012624062274
 20
72.88518892426595
 30
0.0
 10
-260.6014982663006
 20
72.88522712596745
 30
0.0
 10
-260.6016552969592
 20
72.88525438085736
 30
0.0
 10
-260.6017338605453
 20
72.88526802410954
 30
0.0
 11
-260.5970073893845
 21
72.8848709383719
 31
0.0
 11
-260.5972442511624
 21
72.88487015631043
 31
0.0
 11
-260.5974810560674
 21
72.88487154681295
 31
0.0
 11
-260.5977178052464
 21
72.8848751098971
 31
0.0
 11
-260.5979544975256
 21
72.88488084553794
 31
0.0
 11
-260.5981911340357
 21
72.8848887537475
 31
0.0
 11
-260.5984277136201
 21
72.88489883445592
 31
0.0
 11
-260.5986642373936
 21
72.88491108767008
 31
0.0
 11
-260.5989007042167
 21
72.88492551327496
 31
0.0
 11
-260.5991371151879
 21
72.88494211127093
 31
0.0
 11
-260.5993734691857
 21
72.88496088149802
 31
0.0
 11
-260.5996097672918
 21
72.88498182395043
 31
0.0
 11
-260.5998460084024
 21
72.88500493842386
 31
0.0
 11
-260.600082193583
 21
72.88503022490642
 31
0.0
 11
-260.6003183217478
 21
72.88505768314891
 31
0.0
 11
-260.6005543939448
 21
72.88508731313303
 31
0.0
 11
-260.6007904091067
 21
72.88511911456587
 31
0.0
 11
-260.6010263682644
 21
72.88515308742083
 31
0.0
 11
-260.6012622703692
 21
72.885189231363
 31
0.0
 11
-260.6014980939864
 21
72.88522754260507
 31
0.0
 11
-260.6017338605453
 21
72.88526802410954
 31
0.0
  0
SPLINE
  5
18B
330
1F
100
AcDbEntity
  8
0
  6
Continuous
 62
     7
100
AcDbSpline
210
0.0
220
0.0
230
1.0
 70
     8
 71
     3
 72
    13
 73
     9
 74
     7
 42
0.000000001
 43
0.0000000001
 44
0.00000001
 40
0.0
 40
0.0
 40
0.0
 40
0.0
 40
0.6640613120230455
 40
1.293516654422149
 40
1.917198144838239
 40
2.54655484590261
 40
3.188435237149249
 40
3.848907649144056
 40
3.848907649144056
 40
3.848907649144056
 40
3.848907649144056
 10
-252.4093946612738
 20
108.7061880308508
 30
0.0
 10
-252.6309855313018
 20
108.7137674120648
 30
0.0
 10
-253.0626195913441
 20
108.7285312074472
 30
0.0
 10
-253.690652703639
 20
108.8625011646152
 30
0.0
 10
-254.2829856514488
 20
109.0751043085708
 30
0.0
 10
-254.8422415359805
 20
109.3725643748968
 30
0.0
 10
-255.3698242504303
 20
109.7463960501032
 30
0.0
 10
-255.6794985039639
 20
110.0514723061969
 30
0.0
 10
-255.8365460368109
 20
110.2061880308508
 30
0.0
 11
-252.4093946612738
 21
108.7061880308508
 31
0.0
 11
-253.0720836891689
 21
108.7488574561175
 31
0.0
 11
-253.6884574241533
 21
108.8765189172125
 31
0.0
 11
-254.2751407242191
 21
109.0881348629304
 31
0.0
 11
-254.8316851890253
 21
109.3819853647059
 31
0.0
 11
-255.3535674915302
 21
109.7556821677135
 31
0.0
 11
-255.8365460368109
 21
110.2061880308508
 31
0.0
  0
SPLINE
  5
18C
330
1F
100
AcDbEntity
  8
0
  6
Continuous
 62
     7
100
AcDbSpline
210
0.0
220
0.0
230
1.0
 70
     8
 71
     3
 72
    13
 73
     9
 74
     7
 42
0.000000001
 43
0.0000000001
 44
0.00000001
 40
0.0
 40
0.0
 40
0.0
 40
0.0
 40
0.7837127337238776
 40
1.536255346191541
 40
2.258536559373409
 40
2.952628017036504
 40
3.626073184862095
 40
4.305098377535275
 40
4.305098377535275
 40
4.305098377535275
 40
4.305098377535275
 10
-250.5654943832631
 20
140.2061880308508
 30
0.0
 10
-250.3545648342594
 20
140.360616038896
 30
0.0
 10
-249.9410948983028
 20
140.6633300736266
 30
0.0
 10
-249.2852165819835
 20
141.0361825684969
 30
0.0
 10
-248.6247344229644
 20
141.333307811079
 30
0.0
 10
-247.960261316198
 20
141.5462442100645
 30
0.0
 10
-247.2889694980726
 20
141.6822093948713
 30
0.0
 10
-246.8377689159942
 20
141.6981732025377
 30
0.0
 10
-246.6112378423695
 20
141.706188030852
 30
0.0
 11
-250.5654943832631
 21
140.2061880308508
 31
0.0
 11
-249.9242065263271
 21
140.6566938939883
 31
0.0
 11
-249.2710058803941
 21
141.0303906969964
 31
0.0
 11
-248.6112013373689
 21
141.3242411987724
 31
0.0
 11
-247.9501554652632
 21
141.5358571444904
 31
0.0
 11
-247.2889210532385
 21
141.6635186055853
 31
0.0
 11
-246.6112378423695
 21
141.706188030852
 31
0.0
  0
SPLINE
  5
18D
330
1F
100
AcDbEntity
  8
0
  6
Continuous
 62
     7
100
AcDbSpline
210
0.0
220
0.0
230
1.0
 70
     8
 71
     3
 72
    13
 73
     9
 74
     7
 42
0.000000001
 43
0.0000000001
 44
0.00000001
 40
0.0
 40
0.0
 40
0.0
 40
0.0
 40
0.7837127337239008
 40
1.536255346191589
 40
2.258536559373483
 40
2.952628017036551
 40
3.626073184862114
 40
4.305098377535379
 40
4.305098377535379
 40
4.305098377535379
 40
4.305098377535379
 10
-151.3938737498469
 20
140.2061880308508
 30
0.0
 10
-151.6048032988507
 20
140.360616038896
 30
0.0
 10
-152.0182732348071
 20
140.6633300736267
 30
0.0
 10
-152.6741515511266
 20
141.0361825684969
 30
0.0
 10
-153.3346337101455
 20
141.333307811079
 30
0.0
 10
-153.999106816912
 20
141.5462442100644
 30
0.0
 10
-154.6703986350375
 20
141.6822093948713
 30
0.0
 10
-155.1215992171158
 20
141.6981732025376
 30
0.0
 10
-155.3481302907406
 20
141.706188030852
 30
0.0
 11
-151.3938737498469
 21
140.2061880308508
 31
0.0
 11
-152.0351616067829
 21
140.6566938939883
 31
0.0
 11
-152.6883622527159
 21
141.0303906969964
 31
0.0
 11
-153.3481667957412
 21
141.3242411987724
 31
0.0
 11
-154.0092126678468
 21
141.5358571444904
 31
0.0
 11
-154.6704470798715
 21
141.6635186055853
 31
0.0
 11
-155.3481302907406
 21
141.706188030852
 31
0.0
  0
SPLINE
  5
18E
330
1F
100
AcDbEntity
  8
0
  6
Continuous
 62
     7
100
AcDbSpline
210
0.0
220
0.0
230
1.0
 70
     8
 71
     3
 72
    13
 73
     9
 74
     7
 42
0.000000001
 43
0.0000000001
 44
0.00000001
 40
0.0
 40
0.0
 40
0.0
 40
0.0
 40
0.6640613120230171
 40
1.293516654422121
 40
1.917198144838184
 40
2.54655484590253
 40
3.188435237149146
 40
3.848907649144057
 40
3.848907649144057
 40
3.848907649144057
 40
3.848907649144057
 10
-149.5499734718362
 20
108.7061880308508
 30
0.0
 10
-149.3283826018082
 20
108.7137674120647
 30
0.0
 10
-148.8967485417659
 20
108.7285312074472
 30
0.0
 10
-148.2687154294711
 20
108.8625011646152
 30
0.0
 10
-147.6763824816612
 20
109.0751043085708
 30
0.0
 10
-147.1171265971296
 20
109.3725643748968
 30
0.0
 10
-146.5895438826798
 20
109.7463960501033
 30
0.0
 10
-146.2798696291461
 20
110.0514723061969
 30
0.0
 10
-146.1228220962991
 20
110.2061880308508
 30
0.0
 11
-149.5499734718362
 21
108.7061880308508
 31
0.0
 11
-148.8872844439412
 21
108.7488574561175
 31
0.0
 11
-148.2709107089567
 21
108.8765189172125
 31
0.0
 11
-147.684227408891
 21
109.0881348629304
 31
0.0
 11
-147.1276829440848
 21
109.3819853647059
 31
0.0
 11
-146.6058006415799
 21
109.7556821677135
 31
0.0
 11
-146.1228220962991
 21
110.2061880308508
 31
0.0
  0
SPLINE
  5
18F
330
1F
100
AcDbEntity
  8
0
  6
Continuous
 62
     7
100
AcDbSpline
210
0.0
220
0.0
230
1.0
 70
     8
 71
     3
 72
    27
 73
    23
 74
    21
 42
0.000000001
 43
0.0000000001
 44
0.00000001
 40
0.0
 40
0.0
 40
0.0
 40
0.0
 40
0.000236862997407
 40
0.0004736718716899
 40
0.0007104477525239
 40
0.0009472094102911
 40
0.0011839779246362
 40
0.0014207720829781
 40
0.0016576129387338
 40
0.0018945192745118
 40
0.0021315120957473
 40
0.0023686101580961
 40
0.0026058343973237
 40
0.0028432035201735
 40
0.003080738371929
 40
0.0033184575885886
 40
0.0035563819034148
 40
0.003794529861382
 40
0.0040329220628201
 40
0.0042715769410491
 40
0.0045104921847579
 40
0.0047497088408852
 40
0.0047497088408852
 40
0.0047497088408852
 40
0.0047497088408852
 10
-141.3623607437255
 20
72.8848709383719
 30
0.0
 10
-141.3622817899236
 20
72.88487052462114
 30
0.0
 10
-141.3621239003127
 20
72.88486971185372
 30
0.0
 10
-141.3618870842028
 20
72.88487121924899
 30
0.0
 10
-141.3616503258055
 20
72.88487475101624
 30
0.0
 10
-141.3614136232146
 20
72.88488049528954
 30
0.0
 10
-141.3611769772454
 20
72.88488840164452
 30
0.0
 10
-141.3609403874305
 20
72.88489848356333
 30
0.0
 10
-141.3607038541989
 20
72.88491073737228
 30
0.0
 10
-141.36046737719
 20
72.88492516400069
 30
0.0
 10
-141.3602309567988
 20
72.88494176309939
 30
0.0
 10
-141.3599945926772
 20
72.88496053467956
 30
0.0
 10
-141.3597582852113
 20
72.88498147859701
 30
0.0
 10
-141.3595220340611
 20
72.88500459479474
 30
0.0
 10
-141.3592858395951
 20
72.88502988305368
 30
0.0
 10
-141.3590497015193
 20
72.88505734352174
 30
0.0
 10
-141.3588136200428
 20
72.88508697508442
 30
0.0
 10
-141.3585775954486
 20
72.88511878111086
 30
0.0
 10
-141.358341625799
 20
72.88515274833256
 30
0.0
 10
-141.3581057268826
 20
72.88518892426598
 30
0.0
 10
-141.3578698668094
 20
72.8852271259674
 30
0.0
 10
-141.3577128361508
 20
72.88525438085735
 30
0.0
 10
-141.3576342725647
 20
72.88526802410954
 30
0.0
 11
-141.3623607437255
 21
72.8848709383719
 31
0.0
 11
-141.3621238819477
 21
72.88487015631043
 31
0.0
 11
-141.3618870770427
 21
72.88487154681295
 31
0.0
 11
-141.3616503278635
 21
72.8848751098971
 31
0.0
 11
-141.3614136355845
 21
72.88488084553794
 31
0.0
 11
-141.3611769990742
 21
72.8848887537475
 31
0.0
 11
-141.3609404194899
 21
72.88489883445592
 31
0.0
 11
-141.3607038957165
 21
72.88491108767008
 31
0.0
 11
-141.3604674288934
 21
72.88492551327496
 31
0.0
 11
-141.3602310179221
 21
72.88494211127093
 31
0.0
 11
-141.3599946639244
 21
72.88496088149802
 31
0.0
 11
-141.3597583658183
 21
72.88498182395043
 31
0.0
 11
-141.3595221247076
 21
72.88500493842386
 31
0.0
 11
-141.3592859395269
 21
72.88503022490642
 31
0.0
 11
-141.3590498113623
 21
72.88505768314891
 31
0.0
 11
-141.3588137391653
 21
72.88508731313303
 31
0.0
 11
-141.3585777240034
 21
72.88511911456587
 31
0.0
 11
-141.3583417648457
 21
72.88515308742083
 31
0.0
 11
-141.3581058627409
 21
72.885189231363
 31
0.0
 11
-141.3578700391236
 21
72.88522754260507
 31
0.0
 11
-141.3576342725647
 21
72.88526802410954
 31
0.0
  0
SPLINE
  5
190
330
1F
100
AcDbEntity
  8
0
  6
Continuous
 62
     7
100
AcDbSpline
210
0.0
220
0.0
230
1.0
 70
    24
 71
     3
 72
    11
 73
     7
 74
     5
 42
0.000000001
 43
0.0000000001
 44
0.00000001
 40
0.0
 40
0.0
 40
0.0
 40
0.0
 40
0.0006564079306284
 40
0.0013128158607715
 40
0.0222397966251131
 40
0.043166777390571
 40
0.043166777390571
 40
0.043166777390571
 40
0.043166777390571
 10
-67.32976880562376
 20
148.7061880308502
 30
0.0
 10
-67.32998753328908
 20
148.7061823032647
 30
0.0
 10
-67.33042498861964
 20
148.7061708480937
 30
0.0
 10
-67.3378357138202
 20
148.7059767914257
 30
0.0
 10
-67.35200098122647
 20
148.7056058608436
 30
0.0
 10
-67.36594752096718
 20
148.7052406578478
 30
0.0
 10
-67.37292079083784
 20
148.7050580563501
 30
0.0
 11
-67.32976880562376
 21
148.7061880308502
 31
0.0
 11
-67.33042498861985
 21
148.7061708480939
 31
0.0
 11
-67.33108117161544
 21
148.7061536653375
 31
0.0
 11
-67.35200098122655
 21
148.7056058608438
 31
0.0
 11
-67.37292079083784
 21
148.7050580563501
 31
0.0
  0
SPLINE
  5
191
330
1F
100
AcDbEntity
  8
0
  6
Continuous
 62
     7
100
AcDbSpline
210
0.0
220
0.0
230
1.0
 70
    24
 71
     3
 72
    44
 73
    40
 74
    38
 42
0.000000001
 43
0.0000000001
 44
0.00000001
 40
0.0
 40
0.0
 40
0.0
 40
0.0
 40
0.4060368616894983
 40
0.7017496155552454
 40
0.9055596422602689
 40
1.035888322467025
 40
1.111157036838255
 40
1.149787166036628
 40
1.170200090724787
 40
1.340630723107181
 40
1.527572168704358
 40
1.68017160075841
 40
1.841312411615208
 40
1.952349981481886
 40
2.066748277516048
 40
2.126431509118254
 40
2.186947245296877
 40
2.310876683182767
 40
2.437818057863373
 40
2.567638318920195
 40
2.700204415934153
 40
2.835203822249169
 40
2.972464869240135
 40
3.111845085805458
 40
3.253202000843232
 40
3.396680392894179
 40
3.541627172972956
 40
3.68789081134798
 40
3.835319778287484
 40
3.983709928693621
 40
4.132726806669255
 40
4.249106230853009
 40
4.365698042998
 40
5.624698213715795
 40
6.883698384433544
 40
8.907418763733496
 40
10.93113914303322
 40
14.10497411267085
 40
17.27880908526144
 40
17.27880908526144
 40
17.27880908526144
 40
17.27880908526144
 10
-84.64580885977364
 20
148.2527515641035
 30
0.0
 10
-84.5105096187743
 20
148.2562944994167
 30
0.0
 10
-84.27667323761145
 20
148.262417720554
 30
0.0
 10
-83.97492346108223
 20
148.2703193165357
 30
0.0
 10
-83.7650449189446
 20
148.2758151795792
 30
0.0
 10
-83.62862254308298
 20
148.2793875252138
 30
0.0
 10
-83.54724126538173
 20
148.281518568969
 30
0.0
 10
-83.50248601772533
 20
148.2826905263739
 30
0.0
 10
-83.42602100060265
 20
148.284692833315
 30
0.0
 10
-83.30013581887513
 20
148.2879892528105
 30
0.0
 10
-83.13020356703049
 20
148.2924390854294
 30
0.0
 10
-82.96336686123107
 20
148.2968078583224
 30
0.0
 10
-82.82182277722106
 20
148.3005143206048
 30
0.0
 10
-82.69300804169252
 20
148.3038874531664
 30
0.0
 10
-82.59800091025609
 20
148.3063753024587
 30
0.0
 10
-82.51982861919211
 20
148.3084223159414
 30
0.0
 10
-82.43848036953901
 20
148.3105524948266
 30
0.0
 10
-82.33472042142171
 20
148.31326954469
 30
0.0
 10
-82.20786688132156
 20
148.3165913215419
 30
0.0
 10
-82.0781354413679
 20
148.3199884588535
 30
0.0
 10
-81.94571891129816
 20
148.3234559077245
 30
0.0
 10
-81.81082296917418
 20
148.3269882822849
 30
0.0
 10
-81.6736564322093
 20
148.3305801144639
 30
0.0
 10
-81.53437145185661
 20
148.3342274200351
 30
0.0
 10
-81.39301473332691
 20
148.3379289759798
 30
0.0
 10
-81.24980312946683
 20
148.3416791038063
 30
0.0
 10
-81.10495651163149
 20
148.3454720459805
 30
0.0
 10
-80.95879348675443
 20
148.3492994594863
 30
0.0
 10
-80.81148306508726
 20
148.3531569186345
 30
0.0
 10
-80.66325521137534
 20
148.3570384015861
 30
0.0
 10
-80.52537365861441
 20
148.3606489571125
 30
0.0
 10
-80.39808791977511
 20
148.3639820514867
 30
0.0
 10
-79.9009345378723
 20
148.3770004709528
 30
0.0
 10
-79.02303808965577
 20
148.3999889984921
 30
0.0
 10
-77.50964996083023
 20
148.439618461337
 30
0.0
 10
-75.74144244598286
 20
148.485920604639
 30
0.0
 10
-73.33517538684924
 20
148.5489309251236
 30
0.0
 10
-70.54566816846764
 20
148.6219767423608
 30
0.0
 10
-68.43050325037578
 20
148.6773642850117
 30
0.0
 10
-67.37292079083784
 20
148.7050580563501
 30
0.0
 11
-84.64580885977364
 21
148.2527515641035
 31
0.0
 11
-84.2399111367757
 21
148.263380370043
 31
0.0
 11
-83.94429971628512
 21
148.271121227515
 31
0.0
 11
-83.740559530186
 21
148.2764563520486
 31
0.0
 11
-83.61027551036294
 21
148.2798679591734
 31
0.0
 11
-83.53503258870025
 21
148.2818382644187
 31
0.0
 11
-83.49641569708234
 21
148.2828494833138
 31
0.0
 11
-83.47600976739365
 21
148.2833838313882
 31
0.0
 11
-83.3056375373324
 21
148.2878451852422
 31
0.0
 11
-83.11876015189966
 21
148.2927387418002
 31
0.0
 11
-82.96621301185974
 21
148.2967333292449
 31
0.0
 11
-82.80512741993424
 21
148.300951503921
 31
0.0
 11
-82.69412789986954
 21
148.3038581286476
 31
0.0
 11
-82.57976880527428
 21
148.3068527269294
 31
0.0
 11
-82.52010602562493
 21
148.3084150517979
 31
0.0
 11
-82.45961102667768
 21
148.3099991690957
 31
0.0
 11
-82.33572405631494
 21
148.313243263585
 31
0.0
 11
-82.20882618127303
 21
148.3165662013882
 31
0.0
 11
-82.07905040637733
 21
148.3199644996511
 31
0.0
 11
-81.94652973645393
 21
148.32343467552
 31
0.0
 11
-81.81157659106378
 21
148.3269685480007
 31
0.0
 11
-81.67436258000545
 21
148.3305616233325
 31
0.0
 11
-81.53503012555926
 21
148.3342101720567
 31
0.0
 11
-81.39372165000579
 21
148.3379104647147
 31
0.0
 11
-81.25029242441636
 21
148.3416662911667
 31
0.0
 11
-81.10539531397899
 21
148.3454605555361
 31
0.0
 11
-80.95918179649982
 21
148.3492892912371
 31
0.0
 11
-80.81180334978517
 21
148.3531485316838
 31
0.0
 11
-80.66346404897746
 21
148.3570329329804
 31
0.0
 11
-80.51449823536413
 21
148.3609337400922
 31
0.0
 11
-80.3981586915024
 21
148.3639801982632
 31
0.0
 11
-80.28160683245949
 21
148.3670322161029
 31
0.0
 11
-79.02303808965598
 21
148.3999889984913
 31
0.0
 11
-77.76446934685248
 21
148.4329457808797
 31
0.0
 11
-75.74144244598293
 21
148.4859206046383
 31
0.0
 11
-73.71841554511357
 21
148.5388954283969
 31
0.0
 11
-70.54566816945163
 21
148.6219767423348
 31
0.0
 11
-67.37292079083784
 21
148.7050580563501
 31
0.0
  0
ARC
  5
192
330
1F
100
AcDbEntity
  8
0
  6
Continuous
 62
     7
100
AcDbCircle
 10
-50.09225959639764
 20
145.2537795891768
 30
0.0
 40
3.000000000000032
100
AcDbArc
 50
0.99999999999905
 51
88.50000000000179
  0
ARC
  5
193
330
1F
100
AcDbEntity
  8
0
  6
Continuous
 62
     7
100
AcDbCircle
 10
-250.3085969675696
 20
145.7061880308509
 30
0.0
 40
3.0
100
AcDbArc
 50
90.0
 51
169.999999999996
  0
ARC
  5
194
102
{ACAD_REACTORS
330
1EE
102
}
330
1F
100
AcDbEntity
  8
1
  6
Continuous
 62
     7
100
AcDbCircle
 10
-199.0436840665562
 20
76.94745291456923
 30
0.0
 40
0.2420000000001892
100
AcDbArc
 50
180.0
 51
299.9816393688415
  0
ARC
  5
195
102
{ACAD_REACTORS
330
1EE
102
}
330
1F
100
AcDbEntity
  8
1
  6
Continuous
 62
     7
100
AcDbCircle
 10
-199.0436840665563
 20
80.46492314713245
 30
0.0
 40
0.2420000000001021
100
AcDbArc
 50
60.0183606311612
 51
180.0
  0
ARC
  5
196
330
1F
100
AcDbEntity
  8
1
  6
Continuous
 62
     7
100
AcDbCircle
 10
-194.9298184736758
 20
78.70618803085083
 30
0.0
 40
0.12100000000006
100
AcDbArc
 50
299.9816393688596
 51
60.01836063114708
  0
ARC
  5
197
330
1F
100
AcDbEntity
  8
1
  6
Continuous
 62
     7
100
AcDbCircle
 10
-207.0295496594369
 20
78.70618803085083
 30
0.0
 40
0.1209999999999426
100
AcDbArc
 50
119.9816393687363
 51
240.0183606312569
  0
ARC
  5
198
102
{ACAD_REACTORS
330
1F0
102
}
330
1F
100
AcDbEntity
  8
1
  6
Continuous
 62
     7
100
AcDbCircle
 10
-202.6736840665563
 20
77.08722338432253
 30
0.0
 40
0.4839999999998952
100
AcDbArc
 50
180.0
 51
240.018360631133
  0
ARC
  5
199
102
{ACAD_REACTORS
330
1EF
102
}
330
1F
100
AcDbEntity
  8
1
  6
Continuous
 62
     7
100
AcDbCircle
 10
-200.9796840665562
 20
78.94818803085084
 30
0.0
 40
0.1209999999999371
100
AcDbArc
 50
209.9999999999498
 51
330.0000000000434
  0
ARC
  5
19A
330
1F
100
AcDbEntity
  8
0
  6
Continuous
 62
     7
100
AcDbCircle
 10
-151.6507711655405
 20
145.7061880308509
 30
0.0
 40
3.000000000000113
100
AcDbArc
 50
10.00000000000367
 51
90.0
  0
ARC
  5
19B
330
1F
100
AcDbEntity
  8
0
  6
Continuous
 62
     7
100
AcDbCircle
 10
-84.5672780148501
 20
145.2537795891768
 30
0.0
 40
3.000000000000044
100
AcDbArc
 50
91.49999999999835
 51
179.0000000000009
  0
MTEXT
  5
19C
330
1F
100
AcDbEntity
  8
1
 62
     7
100
AcDbMText
 10
-176.4000000000002
 20
8.75
 30
0.0
 40
3.0
 41
0.0
 71
     4
 72
     1
  1
T.Tedeschi
  7
CONVERTER_11
 73
     1
 44
1.32052821128451
  0
MTEXT
  5
19D
330
1F
100
AcDbEntity
  8
1
 62
     7
100
AcDbMText
 10
-176.4000000000002
 20
16.26063942075601
 30
0.0
 40
3.0
 41
0.0
 71
     4
 72
     1
  1
08/10/08
  7
CONVERTER_11
 73
     1
 44
1.32052821128451
  0
MTEXT
  5
19E
330
1F
100
AcDbEntity
  8
1
 62
     7
100
AcDbMText
 10
-40.32369931125709
 20
10.06063942075602
 30
0.0
 40
4.5
 41
0.0
 71
     5
 72
     1
  1
1:1
  7
CONVERTER_11
 73
     1
 44
1.32052821128451
  0
MTEXT
  5
19F
330
1F
100
AcDbEntity
  8
1
 62
     7
100
AcDbMText
 10
-152.723699311257
 20
12.5
 30
0.0
 40
4.5
 41
0.0
 71
     4
 72
     1
  1
CAV 24 L229\Phood top entry 2 x Pg29
  7
CONVERTER_11
 73
     1
 44
0.90036014405762
  0
DIMENSION
  5
1AB
330
1F
100
AcDbEntity
  8
1
100
AcDbDimension
  2
*D3
 10
-269.981232708526
 20
50.43108464917856
 30
0.0
 11
-200.9796840665551
 21
53.93108464917856
 31
0.0
 70
    32
  1
<>
 71
     5
 42
-1.0
 53
0.00013888888889
  3
ME10_DIM_10
100
AcDbAlignedDimension
 13
-131.9781354245842
 23
75.30618803085085
 33
0.0
 14
-269.981232708526
 24
75.30618803085085
 34
0.0
100
AcDbRotatedDimension
  0
DIMENSION
  5
1B6
330
1F
100
AcDbEntity
  8
1
100
AcDbDimension
  2
*D4
 10
-244.4796840665544
 20
158.6205159402939
 30
0.0
 11
-225.9796840665544
 21
162.5705159402939
 31
0.0
 70
    32
  1
Pg29
 71
     5
 42
-1.0
 53
0.00013888888889
  3
ME10_DIM_11
100
AcDbAlignedDimension
 13
-207.4796840665544
 23
145.9061880308502
 33
0.0
 14
-244.4796840665544
 24
145.9061880308497
 34
0.0
100
AcDbRotatedDimension
  0
DIMENSION
  5
1C1
330
1F
100
AcDbEntity
  8
1
100
AcDbDimension
  2
*D5
 10
-194.4796840665557
 20
158.6205159402939
 30
0.0
 11
-175.9796840665557
 21
162.5705159402939
 31
0.0
 70
    32
  1
Pg29
 71
     5
 42
-1.0
 53
0.00013888888889
  3
ME10_DIM_12
100
AcDbAlignedDimension
 13
-157.4796840665557
 23
145.9061880308497
 33
0.0
 14
-194.4796840665557
 24
145.9061880308502
 34
0.0
100
AcDbRotatedDimension
  0
DIMENSION
  5
1CC
330
1F
100
AcDbEntity
  8
1
100
AcDbDimension
  2
*D6
 10
-225.9796840665544
 20
172.8737032317347
 30
0.0
 11
-200.979684066555
 21
176.3737032317347
 31
0.0
 70
    32
  1
<>
 71
     5
 42
-1.0
 53
0.00013888888889
  3
ME10_DIM_13
100
AcDbAlignedDimension
 13
-175.9796840665557
 23
171.7751367935854
 33
0.0
 14
-225.9796840665544
 24
171.7751367935854
 34
0.0
100
AcDbRotatedDimension
  0
DIMENSION
  5
1D7
330
1F
100
AcDbEntity
  8
1
100
AcDbDimension
  2
*D7
 10
-260.9796840598024
 20
63.09200245016595
 30
0.0
 11
-200.979684066555
 21
66.59200245016595
 31
0.0
 70
    32
  1
<>
 71
     5
 42
-1.0
 53
0.00013888888889
  3
ME10_DIM_14
100
AcDbAlignedDimension
 13
-140.9796840733076
 23
72.95191122992898
 33
0.0
 14
-260.9796840598024
 24
72.95191122992898
 34
0.0
100
AcDbRotatedDimension
  0
DIMENSION
  5
1E2
330
1F
100
AcDbEntity
  8
1
100
AcDbDimension
  2
*D8
 10
-88.82976880562398
 20
63.01533501889014
 30
0.0
 11
-67.32976880562387
 21
66.51533501889014
 31
0.0
 70
    32
  1
<>
 71
     5
 42
-1.0
 53
0.00013888888889
  3
ME10_DIM_15
100
AcDbAlignedDimension
 13
-45.82976880562376
 23
72.95191122992713
 33
0.0
 14
-88.82976880562398
 24
72.95191122992713
 34
0.0
100
AcDbRotatedDimension
  0
DIMENSION
  5
1ED
330
1F
100
AcDbEntity
  8
1
100
AcDbDimension
  2
*D9
 10
-26.7703378746387
 20
148.7050580563501
 30
0.0
 11
-30.2703378746387
 21
110.7056230435995
 31
0.0
 70
    32
  1
<>
 71
     5
 42
-1.0
 53
90.0
  3
ME10_DIM_16
100
AcDbAlignedDimension
 13
-47.22976880562385
 23
72.70618803084886
 33
0.0
 14
-67.2866168204099
 24
148.7050580563501
 34
0.0
 50
90.0
100
AcDbRotatedDimension
  0
HATCH
  5
1EE
330
1F
100
AcDbEntity
  8
1
  6
Continuous
 62
     3
100
AcDbHatch
 10
0.0
 20
0.0
 30
0.0
210
0.0
220
0.0
230
1.0
  2
SOLID
 70
     1
 71
     1
 91
        1
 92
        1
 93
       14
 72
     2
 10
-199.0436840665563
 20
80.46492314713245
 40
0.2420000000001021
 50
60.0183606311612
 51
180.0
 73
     1
 72
     1
 10
-199.2856840665564
 20
80.46492314713245
 11
-199.2856840665564
 21
76.94745291456923
 72
     2
 10
-199.0436840665562
 20
76.94745291456923
 40
0.2420000000001892
 50
180.0
 51
299.9816393688415
 73
     1
 72
     1
 10
-198.9227512328118
 20
76.73783600274552
 11
-197.9547512328119
 21
77.29629754120722
 72
     2
 10
-198.0756840665563
 20
77.50591445303095
 40
0.2419999999999364
 50
299.9816393688382
 51
479.9816393688556
 73
     1
 72
     1
 10
-198.1966169003008
 20
77.71553136485468
 11
-198.8016840665563
 21
77.36645415355318
 72
     1
 10
-198.8016840665563
 20
77.36645415355318
 11
-198.8016840665563
 21
78.46418803085098
 72
     1
 10
-198.8016840665563
 20
78.46418803085098
 11
-198.0756840665563
 21
78.46418803085074
 72
     2
 10
-198.0756840665563
 20
78.70618803085083
 40
0.2420000000000897
 50
270.0
 51
450.0
 73
     1
 72
     1
 10
-198.0756840665563
 20
78.94818803085084
 11
-198.8016840665563
 21
78.94818803085084
 72
     1
 10
-198.8016840665563
 20
78.94818803085084
 11
-198.8016840665563
 21
80.04592190814839
 72
     1
 10
-198.8016840665563
 20
80.04592190814839
 11
-198.1966169003008
 21
79.69684469684725
 72
     2
 10
-198.0756840665563
 20
79.90646160867097
 40
0.2419999999999667
 50
240.0183606311427
 51
420.0183606311367
 73
     1
 72
     1
 10
-197.9547512328119
 20
80.11607852049448
 11
-198.9227512328118
 21
80.67454005895632
 97
       14
330
195
330
104
330
194
330
105
330
178
330
106
330
107
330
108
330
179
330
109
330
10A
330
10B
330
17A
330
10C
 75
     0
 76
     1
 98
        1
 10
0.0
 20
0.0
  0
HATCH
  5
1EF
330
1F
100
AcDbEntity
  8
1
  6
Continuous
 62
     3
100
AcDbHatch
 10
0.0
 20
0.0
 30
0.0
210
0.0
220
0.0
230
1.0
  2
SOLID
 70
     1
 71
     1
 91
        1
 92
        1
 93
       13
 72
     2
 10
-201.9973185962991
 20
81.05205179938798
 40
0.1923654702570442
 50
30.0000000000245
 51
180.0
 73
     1
 72
     1
 10
-202.1896840665562
 20
81.05205179938798
 11
-202.1896840665562
 21
77.50653479358226
 72
     2
 10
-201.9476840665562
 20
77.50653479358226
 40
0.2419999999999902
 50
180.0
 51
360.0
 73
     1
 72
     1
 10
-201.7056840665564
 20
77.50653479358226
 11
-201.7056840665564
 21
79.96365691714581
 72
     1
 10
-201.7056840665564
 20
79.96365691714581
 11
-201.0844731404141
 21
78.88768803085097
 72
     2
 10
-200.9796840665562
 20
78.94818803085084
 40
0.1209999999999371
 50
209.9999999999498
 51
330.0000000000434
 73
     1
 72
     1
 10
-200.8748949926983
 20
78.88768803085097
 11
-200.2536840665563
 21
79.96365691714581
 72
     1
 10
-200.2536840665563
 20
79.96365691714581
 11
-200.2536840665563
 21
76.3889913761079
 72
     2
 10
-200.0116840665563
 20
76.3889913761079
 40
0.2419999999999902
 50
180.0
 51
360.0
 73
     1
 72
     1
 10
-199.7696840665562
 20
76.3889913761079
 11
-199.7696840665562
 21
81.05205179938798
 72
     2
 10
-199.9620495368134
 20
81.05205179938798
 40
0.1923654702571866
 50
0.0
 51
149.9999999999459
 73
     1
 72
     1
 10
-200.1286429208667
 20
81.14823453451658
 11
-200.9796840665562
 21
79.67418803085098
 72
     1
 10
-200.9796840665562
 20
79.67418803085098
 11
-201.8307252122456
 21
81.14823453451658
 97
       13
330
182
330
117
330
181
330
116
330
11D
330
199
330
11E
330
115
330
180
330
114
330
17F
330
113
330
118
 75
     0
 76
     1
 98
        1
 10
0.0
 20
0.0
  0
HATCH
  5
1F0
330
1F
100
AcDbEntity
  8
1
  6
Continuous
 62
     3
100
AcDbHatch
 10
0.0
 20
0.0
 30
0.0
210
0.0
220
0.0
230
1.0
  2
SOLID
 70
     1
 71
     1
 91
        1
 92
        1
 93
        7
 72
     2
 10
-202.9156840665562
 20
80.46492314713245
 40
0.241999999999905
 50
0.0
 51
180.0
 73
     1
 72
     1
 10
-203.1576840665562
 20
80.46492314713245
 11
-203.1576840665562
 21
77.08722338432253
 72
     2
 10
-202.6736840665563
 20
77.08722338432253
 40
0.4839999999998952
 50
180.0
 51
240.018360631133
 73
     1
 72
     1
 10
-202.9155497340453
 20
76.66798956067521
 11
-201.3426169003007
 21
75.7605283104377
 72
     2
 10
-201.2216840665562
 20
75.97014522226144
 40
0.241999999999979
 50
240.0183606311444
 51
420.0183606311753
 73
     1
 72
     1
 10
-201.1007512328118
 20
76.17976213408528
 11
-202.6736840665563
 21
77.08722338432253
 72
     1
 10
-202.6736840665563
 20
77.08722338432253
 11
-202.6736840665563
 21
80.46492314713245
 97
        7
330
17E
330
112
330
198
330
10F
330
17D
330
110
330
111
 75
     0
 76
     1
 98
        1
 10
0.0
 20
0.0
  0
HATCH
  5
1F1
330
1F
100
AcDbEntity
  8
1
  6
Continuous
 62
     3
100
AcDbHatch
 10
0.0
 20
0.0
 30
0.0
210
0.0
220
0.0
230
1.0
  2
SOLID
 70
     1
 71
     1
 91
        1
 92
        1
 93
        4
 72
     2
 10
-203.8836840665563
 20
79.90646160867097
 40
0.2419999999999902
 50
0.0
 51
180.0
 73
     1
 72
     1
 10
-204.1256840665564
 20
79.90646160867097
 11
-204.1256840665564
 21
77.50591445303095
 72
     2
 10
-203.8836840665563
 20
77.50591445303095
 40
0.2420000000001039
 50
180.0
 51
360.0
 73
     1
 72
     1
 10
-203.6416840665563
 20
77.50591445303095
 11
-203.6416840665563
 21
79.90646160867097
 97
        4
330
17C
330
10D
330
17B
330
10E
 75
     0
 76
     1
 98
        1
 10
0.0
 20
0.0
  0
ENDSEC
  0
SECTION
  2
OBJECTS
  0
DICTIONARY
  5
C
330
0
100
AcDbDictionary
281
     1
  3
ACAD_GROUP
350
D
  3
ACAD_LAYOUT
350
1A
  3
ACAD_MATERIAL
350
3B
  3
ACAD_MLEADERSTYLE
350
1F4
  3
ACAD_MLINESTYLE
350
17
  3
ACAD_PLOTSETTINGS
350
19
  3
ACAD_PLOTSTYLENAME
350
E
  3
ACAD_VISUALSTYLE
350
2A
  3
AcDbVariableDictionary
350
1F2
  0
DICTIONARY
  5
D
102
{ACAD_REACTORS
330
C
102
}
330
C
100
AcDbDictionary
281
     1
  0
DICTIONARY
  5
1A
102
{ACAD_REACTORS
330
C
102
}
330
C
100
AcDbDictionary
281
     1
  3
Layout1
350
1E
  3
Layout2
350
26
  3
Model
350
22
  0
DICTIONARY
  5
3B
102
{ACAD_REACTORS
330
C
102
}
330
C
100
AcDbDictionary
281
     1
  3
ByBlock
350
3D
  3
ByLayer
350
3C
  3
Global
350
3E
  0
DICTIONARY
  5
1F4
102
{ACAD_REACTORS
330
C
102
}
330
C
100
AcDbDictionary
281
     1
  0
DICTIONARY
  5
17
102
{ACAD_REACTORS
330
C
102
}
330
C
100
AcDbDictionary
281
     1
  3
Standard
350
18
  0
DICTIONARY
  5
19
102
{ACAD_REACTORS
330
C
102
}
330
C
100
AcDbDictionary
281
     1
  0
ACDBDICTIONARYWDFLT
  5
E
102
{ACAD_REACTORS
330
C
102
}
330
C
100
AcDbDictionary
281
     1
  3
Normal
350
F
100
AcDbDictionaryWithDefault
340
F
  0
DICTIONARY
  5
2A
102
{ACAD_REACTORS
330
C
102
}
330
C
100
AcDbDictionary
281
     1
  3
2dWireframe
350
2F
  3
3D Hidden
350
31
  3
3dWireframe
350
30
  3
Basic
350
32
  3
Brighten
350
36
  3
ColorChange
350
3A
  3
Conceptual
350
34
  3
Dim
350
35
  3
Facepattern
350
39
  3
Flat
350
2B
  3
FlatWithEdges
350
2C
  3
Gouraud
350
2D
  3
GouraudWithEdges
350
2E
  3
Linepattern
350
38
  3
Realistic
350
33
  3
Thicken
350
37
  0
DICTIONARY
  5
1F2
102
{ACAD_REACTORS
330
C
102
}
330
C
100
AcDbDictionary
281
     1
  3
DIMASSOC
350
1F5
  3
HIDETEXT
350
1F6
  0
LAYOUT
  5
1E
102
{ACAD_REACTORS
330
1A
102
}
330
1A
100
AcDbPlotSettings
  1

  2
none_device
  4

  6

 40
0.0
 41
0.0
 42
0.0
 43
0.0
 44
0.0
 45
0.0
 46
0.0
 47
0.0
 48
0.0
 49
0.0
140
0.0
141
0.0
142
1.0
143
1.0
 70
   688
 72
     0
 73
     0
 74
     5
  7

 75
    16
147
1.0
148
0.0
149
0.0
100
AcDbLayout
  1
Layout1
 70
     1
 71
     1
 10
0.0
 20
0.0
 11
12.0
 21
9.0
 12
0.0
 22
0.0
 32
0.0
 14
1.00000000000000E+20
 24
1.00000000000000E+20
 34
1.00000000000000E+20
 15
-1.00000000000000E+20
 25
-1.00000000000000E+20
 35
-1.00000000000000E+20
146
0.0
 13
0.0
 23
0.0
 33
0.0
 16
1.0
 26
0.0
 36
0.0
 17
0.0
 27
1.0
 37
0.0
 76
     0
330
1B
  0
LAYOUT
  5
26
102
{ACAD_REACTORS
330
1A
102
}
330
1A
100
AcDbPlotSettings
  1

  2
none_device
  4

  6

 40
0.0
 41
0.0
 42
0.0
 43
0.0
 44
0.0
 45
0.0
 46
0.0
 47
0.0
 48
0.0
 49
0.0
140
0.0
141
0.0
142
1.0
143
1.0
 70
   688
 72
     0
 73
     0
 74
     5
  7

 75
    16
147
1.0
148
0.0
149
0.0
100
AcDbLayout
  1
Layout2
 70
     1
 71
     2
 10
0.0
 20
0.0
 11
0.0
 21
0.0
 12
0.0
 22
0.0
 32
0.0
 14
0.0
 24
0.0
 34
0.0
 15
0.0
 25
0.0
 35
0.0
146
0.0
 13
0.0
 23
0.0
 33
0.0
 16
1.0
 26
0.0
 36
0.0
 17
0.0
 27
1.0
 37
0.0
 76
     0
330
23
  0
LAYOUT
  5
22
102
{ACAD_REACTORS
330
1A
102
}
330
1A
100
AcDbPlotSettings
  1

  2
none_device
  4

  6

 40
0.0
 41
0.0
 42
0.0
 43
0.0
 44
0.0
 45
0.0
 46
0.0
 47
0.0
 48
0.0
 49
0.0
140
0.0
141
0.0
142
1.0
143
1.0
 70
  1712
 72
     0
 73
     0
 74
     0
  7

 75
     0
147
1.0
148
0.0
149
0.0
100
AcDbLayout
  1
Model
 70
     1
 71
     0
 10
0.0
 20
0.0
 11
12.0
 21
9.0
 12
0.0
 22
0.0
 32
0.0
 14
-297.0000000000002
 24
0.0
 34
0.0
 15
0.0
 25
210.0000000000001
 35
0.0
146
0.0
 13
0.0
 23
0.0
 33
0.0
 16
1.0
 26
0.0
 36
0.0
 17
0.0
 27
1.0
 37
0.0
 76
     0
330
1F
331
29
  0
MATERIAL
  5
3D
102
{ACAD_REACTORS
330
3B
102
}
102
{ACAD_XDICTIONARY
360
219
102
}
330
3B
100
AcDbMaterial
  1
ByBlock
  0
MATERIAL
  5
3C
102
{ACAD_REACTORS
330
3B
102
}
102
{ACAD_XDICTIONARY
360
217
102
}
330
3B
100
AcDbMaterial
  1
ByLayer
  0
MATERIAL
  5
3E
102
{ACAD_REACTORS
330
3B
102
}
102
{ACAD_XDICTIONARY
360
21B
102
}
330
3B
100
AcDbMaterial
  1
Global
  0
MLINESTYLE
  5
18
102
{ACAD_REACTORS
330
17
102
}
330
17
100
AcDbMlineStyle
  2
Standard
 70
     0
  3

 62
   256
 51
90.0
 52
90.0
 71
     2
 49
0.5
 62
   256
  6
BYLAYER
 49
-0.5
 62
   256
  6
BYLAYER
  0
ACDBPLACEHOLDER
  5
F
102
{ACAD_REACTORS
330
E
102
}
330
E
  0
VISUALSTYLE
  5
2F
102
{ACAD_REACTORS
330
2A
102
}
102
{ACAD_XDICTIONARY
360
1FF
102
}
330
2A
100
AcDbVisualStyle
  2
2dWireframe
 70
     4
 71
     0
 72
     2
 73
     0
 90
        0
 40
-0.6
 41
-30.0
 62
     5
 63
     7
 74
     1
 91
        4
 64
     7
 65
   257
 75
     1
175
     1
 42
1.0
 92
        0
 66
   257
 43
1.0
 76
     1
 77
     6
 78
     2
 67
     7
 79
     5
170
     0
171
     0
290
     0
174
     0
 93
        1
 44
0.0
173
     0
291
     0
 45
0.0
1001
ACAD
1000
AcDbSavedByObjectVersion
1070
     0
  0
VISUALSTYLE
  5
31
102
{ACAD_REACTORS
330
2A
102
}
102
{ACAD_XDICTIONARY
360
203
102
}
330
2A
100
AcDbVisualStyle
  2
3D Hidden
 70
     6
 71
     1
 72
     2
 73
     2
 90
        0
 40
-0.6
 41
-30.0
 62
     5
 63
     7
 74
     2
 91
        2
 64
     7
 65
   257
 75
     2
175
     1
 42
40.0
 92
        0
 66
   257
 43
1.0
 76
     1
 77
     6
 78
     2
 67
     7
 79
     3
170
     0
171
     0
290
     0
174
     0
 93
        1
 44
0.0
173
     0
291
     0
 45
0.0
1001
ACAD
1000
AcDbSavedByObjectVersion
1070
     0
  0
VISUALSTYLE
  5
30
102
{ACAD_REACTORS
330
2A
102
}
102
{ACAD_XDICTIONARY
360
201
102
}
330
2A
100
AcDbVisualStyle
  2
3dWireframe
 70
     5
 71
     0
 72
     2
 73
     0
 90
        0
 40
-0.6
 41
-30.0
 62
     5
 63
     7
 74
     1
 91
        4
 64
     7
 65
   257
 75
     1
175
     1
 42
1.0
 92
        0
 66
   257
 43
1.0
 76
     1
 77
     6
 78
     2
 67
     7
 79
     5
170
     0
171
     0
290
     0
174
     0
 93
        1
 44
0.0
173
     0
291
     0
 45
0.0
1001
ACAD
1000
AcDbSavedByObjectVersion
1070
     0
  0
VISUALSTYLE
  5
32
102
{ACAD_REACTORS
330
2A
102
}
102
{ACAD_XDICTIONARY
360
205
102
}
330
2A
100
AcDbVisualStyle
  2
Basic
 70
     7
 71
     1
 72
     0
 73
     1
 90
        0
 40
-0.6
 41
-30.0
 62
     5
 63
     7
 74
     0
 91
        4
 64
     7
 65
   257
 75
     1
175
     1
 42
1.0
 92
        8
 66
     7
 43
1.0
 76
     1
 77
     6
 78
     2
 67
     7
 79
     5
170
     0
171
     0
290
     0
174
     0
 93
        1
 44
0.0
173
     0
291
     1
 45
0.0
1001
ACAD
1000
AcDbSavedByObjectVersion
1070
     0
  0
VISUALSTYLE
  5
36
102
{ACAD_REACTORS
330
2A
102
}
102
{ACAD_XDICTIONARY
360
20D
102
}
330
2A
100
AcDbVisualStyle
  2
Brighten
 70
    12
 71
     2
 72
     2
 73
     0
 90
        0
 40
-0.6
 41
-30.0
 62
     5
 63
     7
 74
     1
 91
        4
 64
     7
 65
   257
 75
     1
175
     1
 42
1.0
 92
        8
 66
     7
 43
1.0
 76
     1
 77
     6
 78
     2
 67
     7
 79
     5
170
     0
171
     0
290
     0
174
     0
 93
        1
 44
50.0
173
     0
291
     1
 45
0.0
1001
ACAD
1000
AcDbSavedByObjectVersion
1070
     0
  0
VISUALSTYLE
  5
3A
102
{ACAD_REACTORS
330
2A
102
}
102
{ACAD_XDICTIONARY
360
215
102
}
330
2A
100
AcDbVisualStyle
  2
ColorChange
 70
    16
 71
     2
 72
     2
 73
     3
 90
        0
 40
-0.6
 41
-30.0
 62
     5
 63
     8
 74
     1
 91
        4
 64
     7
 65
   257
 75
     1
175
     1
 42
1.0
 92
        8
 66
     8
 43
1.0
 76
     1
 77
     6
 78
     2
 67
     7
 79
     5
170
     0
171
     0
290
     0
174
     0
 93
        1
 44
0.0
173
     0
291
     1
 45
0.0
1001
ACAD
1000
AcDbSavedByObjectVersion
1070
     0
  0
VISUALSTYLE
  5
34
102
{ACAD_REACTORS
330
2A
102
}
102
{ACAD_XDICTIONARY
360
209
102
}
330
2A
100
AcDbVisualStyle
  2
Conceptual
 70
     9
 71
     3
 72
     2
 73
     0
 90
        0
 40
-0.6
 41
-30.0
 62
     5
 63
     7
 74
     2
 91
        2
 64
     7
 65
   257
 75
     1
175
     1
 42
40.0
 92
        8
 66
     7
 43
1.0
 76
     1
 77
     6
 78
     2
 67
     7
 79
     3
170
     0
171
     0
290
     0
174
     0
 93
        1
 44
0.0
173
     0
291
     0
 45
0.0
1001
ACAD
1000
AcDbSavedByObjectVersion
1070
     0
  0
VISUALSTYLE
  5
35
102
{ACAD_REACTORS
330
2A
102
}
102
{ACAD_XDICTIONARY
360
20B
102
}
330
2A
100
AcDbVisualStyle
  2
Dim
 70
    11
 71
     2
 72
     2
 73
     0
 90
        0
 40
-0.6
 41
-30.0
 62
     5
 63
     7
 74
     1
 91
        4
 64
     7
 65
   257
 75
     1
175
     1
 42
1.0
 92
        8
 66
     7
 43
1.0
 76
     1
 77
     6
 78
     2
 67
     7
 79
     5
170
     0
171
     0
290
     0
174
     0
 93
        1
 44
-50.0
173
     0
291
     1
 45
0.0
1001
ACAD
1000
AcDbSavedByObjectVersion
1070
     0
  0
VISUALSTYLE
  5
39
102
{ACAD_REACTORS
330
2A
102
}
102
{ACAD_XDICTIONARY
360
213
102
}
330
2A
100
AcDbVisualStyle
  2
Facepattern
 70
    15
 71
     2
 72
     2
 73
     0
 90
        0
 40
-0.6
 41
-30.0
 62
     5
 63
     7
 74
     1
 91
        4
 64
     7
 65
   257
 75
     1
175
     1
 42
1.0
 92
        8
 66
     7
 43
1.0
 76
     1
 77
     6
 78
     2
 67
     7
 79
     5
170
     0
171
     0
290
     0
174
     0
 93
        1
 44
0.0
173
     0
291
     1
 45
0.0
1001
ACAD
1000
AcDbSavedByObjectVersion
1070
     0
  0
VISUALSTYLE
  5
2B
102
{ACAD_REACTORS
330
2A
102
}
102
{ACAD_XDICTIONARY
360
1F7
102
}
330
2A
100
AcDbVisualStyle
  2
Flat
 70
     0
 71
     2
 72
     1
 73
     1
 90
        2
 40
-0.6
 41
30.0
 62
     5
 63
     7
 74
     0
 91
        4
 64
     7
 65
   257
 75
     1
175
     1
 42
1.0
 92
        8
 66
     7
 43
1.0
 76
     1
 77
     6
 78
     2
 67
     7
 79
     5
170
     0
171
     0
290
     0
174
     0
 93
       13
 44
0.0
173
     0
291
     1
 45
0.0
1001
ACAD
1000
AcDbSavedByObjectVersion
1070
     0
  0
VISUALSTYLE
  5
2C
102
{ACAD_REACTORS
330
2A
102
}
102
{ACAD_XDICTIONARY
360
1F9
102
}
330
2A
100
AcDbVisualStyle
  2
FlatWithEdges
 70
     1
 71
     2
 72
     1
 73
     1
 90
        2
 40
-0.6
 41
30.0
 62
     5
 63
     7
 74
     1
 91
        4
 64
     7
 65
   257
 75
     1
175
     1
 42
1.0
 92
        0
 66
   257
 43
1.0
 76
     1
 77
     6
 78
     2
 67
     7
 79
     5
170
     0
171
     0
290
     0
174
     0
 93
       13
 44
0.0
173
     0
291
     1
 45
0.0
1001
ACAD
1000
AcDbSavedByObjectVersion
1070
     0
  0
VISUALSTYLE
  5
2D
102
{ACAD_REACTORS
330
2A
102
}
102
{ACAD_XDICTIONARY
360
1FB
102
}
330
2A
100
AcDbVisualStyle
  2
Gouraud
 70
     2
 71
     2
 72
     2
 73
     1
 90
        2
 40
-0.6
 41
30.0
 62
     5
 63
     7
 74
     0
 91
        4
 64
     7
 65
   257
 75
     1
175
     1
 42
1.0
 92
        0
 66
     7
 43
1.0
 76
     1
 77
     6
 78
     2
 67
     7
 79
     5
170
     0
171
     0
290
     0
174
     0
 93
       13
 44
0.0
173
     0
291
     1
 45
0.0
1001
ACAD
1000
AcDbSavedByObjectVersion
1070
     0
  0
VISUALSTYLE
  5
2E
102
{ACAD_REACTORS
330
2A
102
}
102
{ACAD_XDICTIONARY
360
1FD
102
}
330
2A
100
AcDbVisualStyle
  2
GouraudWithEdges
 70
     3
 71
     2
 72
     2
 73
     1
 90
        2
 40
-0.6
 41
30.0
 62
     5
 63
     7
 74
     1
 91
        4
 64
     7
 65
   257
 75
     1
175
     1
 42
1.0
 92
        0
 66
   257
 43
1.0
 76
     1
 77
     6
 78
     2
 67
     7
 79
     5
170
     0
171
     0
290
     0
174
     0
 93
       13
 44
0.0
173
     0
291
     1
 45
0.0
1001
ACAD
1000
AcDbSavedByObjectVersion
1070
     0
  0
VISUALSTYLE
  5
38
102
{ACAD_REACTORS
330
2A
102
}
102
{ACAD_XDICTIONARY
360
211
102
}
330
2A
100
AcDbVisualStyle
  2
Linepattern
 70
    14
 71
     2
 72
     2
 73
     0
 90
        0
 40
-0.6
 41
-30.0
 62
     5
 63
     7
 74
     1
 91
        4
 64
     7
 65
   257
 75
     7
175
     7
 42
1.0
 92
        8
 66
     7
 43
1.0
 76
     1
 77
     6
 78
     2
 67
     7
 79
     5
170
     0
171
     0
290
     0
174
     0
 93
        1
 44
0.0
173
     0
291
     1
 45
0.0
1001
ACAD
1000
AcDbSavedByObjectVersion
1070
     0
  0
VISUALSTYLE
  5
33
102
{ACAD_REACTORS
330
2A
102
}
102
{ACAD_XDICTIONARY
360
207
102
}
330
2A
100
AcDbVisualStyle
  2
Realistic
 70
     8
 71
     2
 72
     2
 73
     0
 90
        0
 40
-0.6
 41
-30.0
 62
     5
 63
     7
 74
     1
 91
        0
 64
     7
 65
   257
 75
     1
175
     1
 42
1.0
 92
        8
 66
     8
 43
1.0
 76
     1
 77
     6
 78
     2
 67
     7
 79
     5
170
     0
171
     0
290
     0
174
     0
 93
       13
 44
0.0
173
     0
291
     0
 45
0.0
1001
ACAD
1000
AcDbSavedByObjectVersion
1070
     0
  0
VISUALSTYLE
  5
37
102
{ACAD_REACTORS
330
2A
102
}
102
{ACAD_XDICTIONARY
360
20F
102
}
330
2A
100
AcDbVisualStyle
  2
Thicken
 70
    13
 71
     2
 72
     2
 73
     0
 90
        0
 40
-0.6
 41
-30.0
 62
     5
 63
     7
 74
     1
 91
        4
 64
     7
 65
   257
 75
     1
175
     1
 42
1.0
 92
       12
 66
     7
 43
1.0
 76
     1
 77
     6
 78
     2
 67
     7
 79
     5
170
     0
171
     0
290
     0
174
     0
 93
        1
 44
0.0
173
     0
291
     1
 45
0.0
1001
ACAD
1000
AcDbSavedByObjectVersion
1070
     0
  0
DICTIONARYVAR
  5
1F5
102
{ACAD_REACTORS
330
1F2
102
}
330
1F2
100
DictionaryVariables
280
     0
  1
2
  0
DICTIONARYVAR
  5
1F6
102
{ACAD_REACTORS
330
1F2
102
}
330
1F2
100
DictionaryVariables
280
     0
  1
1
  0
DICTIONARY
  5
219
330
3D
100
AcDbDictionary
280
     1
281
     1
  3
ACAD_XREC_ROUNDTRIP
360
21A
  0
DICTIONARY
  5
217
330
3C
100
AcDbDictionary
280
     1
281
     1
  3
ACAD_XREC_ROUNDTRIP
360
218
  0
DICTIONARY
  5
21B
330
3E
100
AcDbDictionary
280
     1
281
     1
  3
ACAD_XREC_ROUNDTRIP
360
21C
  0
DICTIONARY
  5
1FF
330
2F
100
AcDbDictionary
280
     1
281
     1
  3
ACAD_XREC_ROUNDTRIP
360
200
  0
DICTIONARY
  5
203
330
31
100
AcDbDictionary
280
     1
281
     1
  3
ACAD_XREC_ROUNDTRIP
360
204
  0
DICTIONARY
  5
201
330
30
100
AcDbDictionary
280
     1
281
     1
  3
ACAD_XREC_ROUNDTRIP
360
202
  0
DICTIONARY
  5
205
330
32
100
AcDbDictionary
280
     1
281
     1
  3
ACAD_XREC_ROUNDTRIP
360
206
  0
DICTIONARY
  5
20D
330
36
100
AcDbDictionary
280
     1
281
     1
  3
ACAD_XREC_ROUNDTRIP
360
20E
  0
DICTIONARY
  5
215
330
3A
100
AcDbDictionary
280
     1
281
     1
  3
ACAD_XREC_ROUNDTRIP
360
216
  0
DICTIONARY
  5
209
330
34
100
AcDbDictionary
280
     1
281
     1
  3
ACAD_XREC_ROUNDTRIP
360
20A
  0
DICTIONARY
  5
20B
330
35
100
AcDbDictionary
280
     1
281
     1
  3
ACAD_XREC_ROUNDTRIP
360
20C
  0
DICTIONARY
  5
213
330
39
100
AcDbDictionary
280
     1
281
     1
  3
ACAD_XREC_ROUNDTRIP
360
214
  0
DICTIONARY
  5
1F7
330
2B
100
AcDbDictionary
280
     1
281
     1
  3
ACAD_XREC_ROUNDTRIP
360
1F8
  0
DICTIONARY
  5
1F9
330
2C
100
AcDbDictionary
280
     1
281
     1
  3
ACAD_XREC_ROUNDTRIP
360
1FA
  0
DICTIONARY
  5
1FB
330
2D
100
AcDbDictionary
280
     1
281
     1
  3
ACAD_XREC_ROUNDTRIP
360
1FC
  0
DICTIONARY
  5
1FD
330
2E
100
AcDbDictionary
280
     1
281
     1
  3
ACAD_XREC_ROUNDTRIP
360
1FE
  0
DICTIONARY
  5
211
330
38
100
AcDbDictionary
280
     1
281
     1
  3
ACAD_XREC_ROUNDTRIP
360
212
  0
DICTIONARY
  5
207
330
33
100
AcDbDictionary
280
     1
281
     1
  3
ACAD_XREC_ROUNDTRIP
360
208
  0
DICTIONARY
  5
20F
330
37
100
AcDbDictionary
280
     1
281
     1
  3
ACAD_XREC_ROUNDTRIP
360
210
  0
XRECORD
  5
21A
102
{ACAD_REACTORS
330
219
102
}
330
219
100
AcDbXrecord
280
     1
102
MATERIAL
148
0.0
149
0.0
149
0.0
 93
        0
 94
      127
282
     0
 72
     1
 77
     1
171
     1
175
     1
179
     1
273
     0
  0
XRECORD
  5
218
102
{ACAD_REACTORS
330
217
102
}
330
217
100
AcDbXrecord
280
     1
102
MATERIAL
148
0.0
149
0.0
149
0.0
 93
        0
 94
      127
282
     0
 72
     1
 77
     1
171
     1
175
     1
179
     1
273
     0
  0
XRECORD
  5
21C
102
{ACAD_REACTORS
330
21B
102
}
330
21B
100
AcDbXrecord
280
     1
102
MATERIAL
148
0.0
149
0.0
149
0.0
 93
        0
 94
      127
282
     0
 72
     1
 77
     1
171
     1
175
     1
179
     1
273
     0
  0
XRECORD
  5
200
102
{ACAD_REACTORS
330
1FF
102
}
330
1FF
100
AcDbXrecord
280
     1
102
RTVSPropertyOp0
 70
     1
102
RTVSPropertyOp1
 70
     1
102
RTVSPropertyOp2
 70
     1
102
RTVSPropertyOp3
 70
     1
102
RTVSPropertyOp4
 70
     1
102
RTVSPropertyOp5
 70
     1
102
RTVSPropertyOp6
 70
     1
102
RTVSPropertyOp7
 70
     1
102
RTVSPropertyOp8
 70
     1
102
RTVSPropertyOp9
 70
     1
102
RTVSPropertyOp10
 70
     1
102
RTVSPropertyOp11
 70
     1
102
RTVSPropertyOp12
 70
     1
102
RTVSPropertyOp13
 70
     1
102
RTVSPropertyOp14
 70
     1
102
RTVSPropertyOp15
 70
     1
102
RTVSPropertyOp16
 70
     1
102
RTVSPropertyOp17
 70
     1
102
RTVSPropertyOp18
 70
     1
102
RTVSPropertyOp19
 70
     1
102
RTVSPropertyOp20
 70
     1
102
RTVSPropertyOp21
 70
     1
102
RTVSPropertyOp22
 70
     1
102
RTVSPropertyOp23
 70
     1
102
RTVSPropertyOp24
 70
     1
102
RTVSPropertyOp25
 70
     1
102
RTVSPropertyOp26
 70
     1
102
RTVSPropertyOp27
 70
     1
102
RTVSPropertyOp28
 70
     1
102
RTVSPropertyOp29
 70
     1
102
RTVSPropertyOp30
 70
     1
102
RTVSPropertyOp31
 70
     1
102
RTVSPropertyOp32
 70
     1
  0
XRECORD
  5
204
102
{ACAD_REACTORS
330
203
102
}
330
203
100
AcDbXrecord
280
     1
102
RTVSPropertyOp0
 70
     1
102
RTVSPropertyOp1
 70
     1
102
RTVSPropertyOp2
 70
     1
102
RTVSPropertyOp3
 70
     1
102
RTVSPropertyOp4
 70
     1
102
RTVSPropertyOp5
 70
     1
102
RTVSPropertyOp6
 70
     1
102
RTVSPropertyOp7
 70
     1
102
RTVSPropertyOp8
 70
     1
102
RTVSPropertyOp9
 70
     1
102
RTVSPropertyOp10
 70
     1
102
RTVSPropertyOp11
 70
     1
102
RTVSPropertyOp12
 70
     1
102
RTVSPropertyOp13
 70
     1
102
RTVSPropertyOp14
 70
     1
102
RTVSPropertyOp15
 70
     1
102
RTVSPropertyOp16
 70
     1
102
RTVSPropertyOp17
 70
     1
102
RTVSPropertyOp18
 70
     1
102
RTVSPropertyOp19
 70
     1
102
RTVSPropertyOp20
 70
     1
102
RTVSPropertyOp21
 70
     1
102
RTVSPropertyOp22
 70
     1
102
RTVSPropertyOp23
 70
     1
102
RTVSPropertyOp24
 70
     1
102
RTVSPropertyOp25
 70
     1
102
RTVSPropertyOp26
 70
     1
102
RTVSPropertyOp27
 70
     1
102
RTVSPropertyOp28
 70
     1
102
RTVSPropertyOp29
 70
     1
102
RTVSPropertyOp30
 70
     1
102
RTVSPropertyOp31
 70
     1
102
RTVSPropertyOp32
 70
     1
  0
XRECORD
  5
202
102
{ACAD_REACTORS
330
201
102
}
330
201
100
AcDbXrecord
280
     1
102
RTVSPropertyOp0
 70
     1
102
RTVSPropertyOp1
 70
     1
102
RTVSPropertyOp2
 70
     1
102
RTVSPropertyOp3
 70
     1
102
RTVSPropertyOp4
 70
     1
102
RTVSPropertyOp5
 70
     1
102
RTVSPropertyOp6
 70
     1
102
RTVSPropertyOp7
 70
     1
102
RTVSPropertyOp8
 70
     1
102
RTVSPropertyOp9
 70
     1
102
RTVSPropertyOp10
 70
     1
102
RTVSPropertyOp11
 70
     1
102
RTVSPropertyOp12
 70
     1
102
RTVSPropertyOp13
 70
     1
102
RTVSPropertyOp14
 70
     1
102
RTVSPropertyOp15
 70
     1
102
RTVSPropertyOp16
 70
     1
102
RTVSPropertyOp17
 70
     1
102
RTVSPropertyOp18
 70
     1
102
RTVSPropertyOp19
 70
     1
102
RTVSPropertyOp20
 70
     1
102
RTVSPropertyOp21
 70
     1
102
RTVSPropertyOp22
 70
     1
102
RTVSPropertyOp23
 70
     1
102
RTVSPropertyOp24
 70
     1
102
RTVSPropertyOp25
 70
     1
102
RTVSPropertyOp26
 70
     1
102
RTVSPropertyOp27
 70
     1
102
RTVSPropertyOp28
 70
     1
102
RTVSPropertyOp29
 70
     1
102
RTVSPropertyOp30
 70
     1
102
RTVSPropertyOp31
 70
     1
102
RTVSPropertyOp32
 70
     1
  0
XRECORD
  5
206
102
{ACAD_REACTORS
330
205
102
}
330
205
100
AcDbXrecord
280
     1
102
RTVSPropertyOp0
 70
     1
102
RTVSPropertyOp1
 70
     1
102
RTVSPropertyOp2
 70
     1
102
RTVSPropertyOp3
 70
     1
102
RTVSPropertyOp4
 70
     1
102
RTVSPropertyOp5
 70
     1
102
RTVSPropertyOp6
 70
     1
102
RTVSPropertyOp7
 70
     1
102
RTVSPropertyOp8
 70
     1
102
RTVSPropertyOp9
 70
     1
102
RTVSPropertyOp10
 70
     1
102
RTVSPropertyOp11
 70
     1
102
RTVSPropertyOp12
 70
     1
102
RTVSPropertyOp13
 70
     1
102
RTVSPropertyOp14
 70
     1
102
RTVSPropertyOp15
 70
     1
102
RTVSPropertyOp16
 70
     1
102
RTVSPropertyOp17
 70
     1
102
RTVSPropertyOp18
 70
     1
102
RTVSPropertyOp19
 70
     1
102
RTVSPropertyOp20
 70
     1
102
RTVSPropertyOp21
 70
     1
102
RTVSPropertyOp22
 70
     1
102
RTVSPropertyOp23
 70
     1
102
RTVSPropertyOp24
 70
     1
102
RTVSPropertyOp25
 70
     1
102
RTVSPropertyOp26
 70
     1
102
RTVSPropertyOp27
 70
     1
102
RTVSPropertyOp28
 70
     1
102
RTVSPropertyOp29
 70
     1
102
RTVSPropertyOp30
 70
     1
102
RTVSPropertyOp31
 70
     1
102
RTVSPropertyOp32
 70
     1
  0
XRECORD
  5
20E
102
{ACAD_REACTORS
330
20D
102
}
330
20D
100
AcDbXrecord
280
     1
102
RTVSPropertyOp0
 70
     1
102
RTVSPropertyOp1
 70
     1
102
RTVSPropertyOp2
 70
     1
102
RTVSPropertyOp3
 70
     1
102
RTVSPropertyOp4
 70
     1
102
RTVSPropertyOp5
 70
     1
102
RTVSPropertyOp6
 70
     1
102
RTVSPropertyOp7
 70
     1
102
RTVSPropertyOp8
 70
     1
102
RTVSPropertyOp9
 70
     1
102
RTVSPropertyOp10
 70
     1
102
RTVSPropertyOp11
 70
     1
102
RTVSPropertyOp12
 70
     1
102
RTVSPropertyOp13
 70
     1
102
RTVSPropertyOp14
 70
     1
102
RTVSPropertyOp15
 70
     1
102
RTVSPropertyOp16
 70
     1
102
RTVSPropertyOp17
 70
     1
102
RTVSPropertyOp18
 70
     1
102
RTVSPropertyOp19
 70
     1
102
RTVSPropertyOp20
 70
     1
102
RTVSPropertyOp21
 70
     1
102
RTVSPropertyOp22
 70
     1
102
RTVSPropertyOp23
 70
     1
102
RTVSPropertyOp24
 70
     1
102
RTVSPropertyOp25
 70
     1
102
RTVSPropertyOp26
 70
     1
102
RTVSPropertyOp27
 70
     1
102
RTVSPropertyOp28
 70
     1
102
RTVSPropertyOp29
 70
     1
102
RTVSPropertyOp30
 70
     1
102
RTVSPropertyOp31
 70
     1
102
RTVSPropertyOp32
 70
     1
  0
XRECORD
  5
216
102
{ACAD_REACTORS
330
215
102
}
330
215
100
AcDbXrecord
280
     1
102
RTVSPropertyOp0
 70
     1
102
RTVSPropertyOp1
 70
     1
102
RTVSPropertyOp2
 70
     1
102
RTVSPropertyOp3
 70
     1
102
RTVSPropertyOp4
 70
     1
102
RTVSPropertyOp5
 70
     1
102
RTVSPropertyOp6
 70
     1
102
RTVSPropertyOp7
 70
     1
102
RTVSPropertyOp8
 70
     1
102
RTVSPropertyOp9
 70
     1
102
RTVSPropertyOp10
 70
     1
102
RTVSPropertyOp11
 70
     1
102
RTVSPropertyOp12
 70
     1
102
RTVSPropertyOp13
 70
     1
102
RTVSPropertyOp14
 70
     1
102
RTVSPropertyOp15
 70
     1
102
RTVSPropertyOp16
 70
     1
102
RTVSPropertyOp17
 70
     1
102
RTVSPropertyOp18
 70
     1
102
RTVSPropertyOp19
 70
     1
102
RTVSPropertyOp20
 70
     1
102
RTVSPropertyOp21
 70
     1
102
RTVSPropertyOp22
 70
     1
102
RTVSPropertyOp23
 70
     1
102
RTVSPropertyOp24
 70
     1
102
RTVSPropertyOp25
 70
     1
102
RTVSPropertyOp26
 70
     1
102
RTVSPropertyOp27
 70
     1
102
RTVSPropertyOp28
 70
     1
102
RTVSPropertyOp29
 70
     1
102
RTVSPropertyOp30
 70
     1
102
RTVSPropertyOp31
 70
     1
102
RTVSPropertyOp32
 70
     1
  0
XRECORD
  5
20A
102
{ACAD_REACTORS
330
209
102
}
330
209
100
AcDbXrecord
280
     1
102
RTVSPropertyOp0
 70
     1
102
RTVSPropertyOp1
 70
     1
102
RTVSPropertyOp2
 70
     1
102
RTVSPropertyOp3
 70
     1
102
RTVSPropertyOp4
 70
     1
102
RTVSPropertyOp5
 70
     1
102
RTVSPropertyOp6
 70
     1
102
RTVSPropertyOp7
 70
     1
102
RTVSPropertyOp8
 70
     1
102
RTVSPropertyOp9
 70
     1
102
RTVSPropertyOp10
 70
     1
102
RTVSPropertyOp11
 70
     1
102
RTVSPropertyOp12
 70
     1
102
RTVSPropertyOp13
 70
     1
102
RTVSPropertyOp14
 70
     1
102
RTVSPropertyOp15
 70
     1
102
RTVSPropertyOp16
 70
     1
102
RTVSPropertyOp17
 70
     1
102
RTVSPropertyOp18
 70
     1
102
RTVSPropertyOp19
 70
     1
102
RTVSPropertyOp20
 70
     1
102
RTVSPropertyOp21
 70
     1
102
RTVSPropertyOp22
 70
     1
102
RTVSPropertyOp23
 70
     1
102
RTVSPropertyOp24
 70
     1
102
RTVSPropertyOp25
 70
     1
102
RTVSPropertyOp26
 70
     1
102
RTVSPropertyOp27
 70
     1
102
RTVSPropertyOp28
 70
     1
102
RTVSPropertyOp29
 70
     1
102
RTVSPropertyOp30
 70
     1
102
RTVSPropertyOp31
 70
     1
102
RTVSPropertyOp32
 70
     1
  0
XRECORD
  5
20C
102
{ACAD_REACTORS
330
20B
102
}
330
20B
100
AcDbXrecord
280
     1
102
RTVSPropertyOp0
 70
     1
102
RTVSPropertyOp1
 70
     1
102
RTVSPropertyOp2
 70
     1
102
RTVSPropertyOp3
 70
     1
102
RTVSPropertyOp4
 70
     1
102
RTVSPropertyOp5
 70
     1
102
RTVSPropertyOp6
 70
     1
102
RTVSPropertyOp7
 70
     1
102
RTVSPropertyOp8
 70
     1
102
RTVSPropertyOp9
 70
     1
102
RTVSPropertyOp10
 70
     1
102
RTVSPropertyOp11
 70
     1
102
RTVSPropertyOp12
 70
     1
102
RTVSPropertyOp13
 70
     1
102
RTVSPropertyOp14
 70
     1
102
RTVSPropertyOp15
 70
     1
102
RTVSPropertyOp16
 70
     1
102
RTVSPropertyOp17
 70
     1
102
RTVSPropertyOp18
 70
     1
102
RTVSPropertyOp19
 70
     1
102
RTVSPropertyOp20
 70
     1
102
RTVSPropertyOp21
 70
     1
102
RTVSPropertyOp22
 70
     1
102
RTVSPropertyOp23
 70
     1
102
RTVSPropertyOp24
 70
     1
102
RTVSPropertyOp25
 70
     1
102
RTVSPropertyOp26
 70
     1
102
RTVSPropertyOp27
 70
     1
102
RTVSPropertyOp28
 70
     1
102
RTVSPropertyOp29
 70
     1
102
RTVSPropertyOp30
 70
     1
102
RTVSPropertyOp31
 70
     1
102
RTVSPropertyOp32
 70
     1
  0
XRECORD
  5
214
102
{ACAD_REACTORS
330
213
102
}
330
213
100
AcDbXrecord
280
     1
102
RTVSPropertyOp0
 70
     1
102
RTVSPropertyOp1
 70
     1
102
RTVSPropertyOp2
 70
     1
102
RTVSPropertyOp3
 70
     1
102
RTVSPropertyOp4
 70
     1
102
RTVSPropertyOp5
 70
     1
102
RTVSPropertyOp6
 70
     1
102
RTVSPropertyOp7
 70
     1
102
RTVSPropertyOp8
 70
     1
102
RTVSPropertyOp9
 70
     1
102
RTVSPropertyOp10
 70
     1
102
RTVSPropertyOp11
 70
     1
102
RTVSPropertyOp12
 70
     1
102
RTVSPropertyOp13
 70
     1
102
RTVSPropertyOp14
 70
     1
102
RTVSPropertyOp15
 70
     1
102
RTVSPropertyOp16
 70
     1
102
RTVSPropertyOp17
 70
     1
102
RTVSPropertyOp18
 70
     1
102
RTVSPropertyOp19
 70
     1
102
RTVSPropertyOp20
 70
     1
102
RTVSPropertyOp21
 70
     1
102
RTVSPropertyOp22
 70
     1
102
RTVSPropertyOp23
 70
     1
102
RTVSPropertyOp24
 70
     1
102
RTVSPropertyOp25
 70
     1
102
RTVSPropertyOp26
 70
     1
102
RTVSPropertyOp27
 70
     1
102
RTVSPropertyOp28
 70
     1
102
RTVSPropertyOp29
 70
     1
102
RTVSPropertyOp30
 70
     1
102
RTVSPropertyOp31
 70
     1
102
RTVSPropertyOp32
 70
     1
  0
XRECORD
  5
1F8
102
{ACAD_REACTORS
330
1F7
102
}
330
1F7
100
AcDbXrecord
280
     1
102
RTVSPropertyOp0
 70
     1
102
RTVSPropertyOp1
 70
     1
102
RTVSPropertyOp2
 70
     1
102
RTVSPropertyOp3
 70
     1
102
RTVSPropertyOp4
 70
     1
102
RTVSPropertyOp5
 70
     1
102
RTVSPropertyOp6
 70
     1
102
RTVSPropertyOp7
 70
     1
102
RTVSPropertyOp8
 70
     1
102
RTVSPropertyOp9
 70
     1
102
RTVSPropertyOp10
 70
     1
102
RTVSPropertyOp11
 70
     1
102
RTVSPropertyOp12
 70
     1
102
RTVSPropertyOp13
 70
     1
102
RTVSPropertyOp14
 70
     1
102
RTVSPropertyOp15
 70
     1
102
RTVSPropertyOp16
 70
     1
102
RTVSPropertyOp17
 70
     1
102
RTVSPropertyOp18
 70
     1
102
RTVSPropertyOp19
 70
     1
102
RTVSPropertyOp20
 70
     1
102
RTVSPropertyOp21
 70
     1
102
RTVSPropertyOp22
 70
     1
102
RTVSPropertyOp23
 70
     1
102
RTVSPropertyOp24
 70
     1
102
RTVSPropertyOp25
 70
     1
102
RTVSPropertyOp26
 70
     1
102
RTVSPropertyOp27
 70
     1
102
RTVSPropertyOp28
 70
     1
102
RTVSPropertyOp29
 70
     1
102
RTVSPropertyOp30
 70
     1
102
RTVSPropertyOp31
 70
     1
102
RTVSPropertyOp32
 70
     1
  0
XRECORD
  5
1FA
102
{ACAD_REACTORS
330
1F9
102
}
330
1F9
100
AcDbXrecord
280
     1
102
RTVSPropertyOp0
 70
     1
102
RTVSPropertyOp1
 70
     1
102
RTVSPropertyOp2
 70
     1
102
RTVSPropertyOp3
 70
     1
102
RTVSPropertyOp4
 70
     1
102
RTVSPropertyOp5
 70
     1
102
RTVSPropertyOp6
 70
     1
102
RTVSPropertyOp7
 70
     1
102
RTVSPropertyOp8
 70
     1
102
RTVSPropertyOp9
 70
     1
102
RTVSPropertyOp10
 70
     1
102
RTVSPropertyOp11
 70
     1
102
RTVSPropertyOp12
 70
     1
102
RTVSPropertyOp13
 70
     1
102
RTVSPropertyOp14
 70
     1
102
RTVSPropertyOp15
 70
     1
102
RTVSPropertyOp16
 70
     1
102
RTVSPropertyOp17
 70
     1
102
RTVSPropertyOp18
 70
     1
102
RTVSPropertyOp19
 70
     1
102
RTVSPropertyOp20
 70
     1
102
RTVSPropertyOp21
 70
     1
102
RTVSPropertyOp22
 70
     1
102
RTVSPropertyOp23
 70
     1
102
RTVSPropertyOp24
 70
     1
102
RTVSPropertyOp25
 70
     1
102
RTVSPropertyOp26
 70
     1
102
RTVSPropertyOp27
 70
     1
102
RTVSPropertyOp28
 70
     1
102
RTVSPropertyOp29
 70
     1
102
RTVSPropertyOp30
 70
     1
102
RTVSPropertyOp31
 70
     1
102
RTVSPropertyOp32
 70
     1
  0
XRECORD
  5
1FC
102
{ACAD_REACTORS
330
1FB
102
}
330
1FB
100
AcDbXrecord
280
     1
102
RTVSPropertyOp0
 70
     1
102
RTVSPropertyOp1
 70
     1
102
RTVSPropertyOp2
 70
     1
102
RTVSPropertyOp3
 70
     1
102
RTVSPropertyOp4
 70
     1
102
RTVSPropertyOp5
 70
     1
102
RTVSPropertyOp6
 70
     1
102
RTVSPropertyOp7
 70
     1
102
RTVSPropertyOp8
 70
     1
102
RTVSPropertyOp9
 70
     1
102
RTVSPropertyOp10
 70
     1
102
RTVSPropertyOp11
 70
     1
102
RTVSPropertyOp12
 70
     1
102
RTVSPropertyOp13
 70
     1
102
RTVSPropertyOp14
 70
     1
102
RTVSPropertyOp15
 70
     1
102
RTVSPropertyOp16
 70
     1
102
RTVSPropertyOp17
 70
     1
102
RTVSPropertyOp18
 70
     1
102
RTVSPropertyOp19
 70
     1
102
RTVSPropertyOp20
 70
     1
102
RTVSPropertyOp21
 70
     1
102
RTVSPropertyOp22
 70
     1
102
RTVSPropertyOp23
 70
     1
102
RTVSPropertyOp24
 70
     1
102
RTVSPropertyOp25
 70
     1
102
RTVSPropertyOp26
 70
     1
102
RTVSPropertyOp27
 70
     1
102
RTVSPropertyOp28
 70
     1
102
RTVSPropertyOp29
 70
     1
102
RTVSPropertyOp30
 70
     1
102
RTVSPropertyOp31
 70
     1
102
RTVSPropertyOp32
 70
     1
  0
XRECORD
  5
1FE
102
{ACAD_REACTORS
330
1FD
102
}
330
1FD
100
AcDbXrecord
280
     1
102
RTVSPropertyOp0
 70
     1
102
RTVSPropertyOp1
 70
     1
102
RTVSPropertyOp2
 70
     1
102
RTVSPropertyOp3
 70
     1
102
RTVSPropertyOp4
 70
     1
102
RTVSPropertyOp5
 70
     1
102
RTVSPropertyOp6
 70
     1
102
RTVSPropertyOp7
 70
     1
102
RTVSPropertyOp8
 70
     1
102
RTVSPropertyOp9
 70
     1
102
RTVSPropertyOp10
 70
     1
102
RTVSPropertyOp11
 70
     1
102
RTVSPropertyOp12
 70
     1
102
RTVSPropertyOp13
 70
     1
102
RTVSPropertyOp14
 70
     1
102
RTVSPropertyOp15
 70
     1
102
RTVSPropertyOp16
 70
     1
102
RTVSPropertyOp17
 70
     1
102
RTVSPropertyOp18
 70
     1
102
RTVSPropertyOp19
 70
     1
102
RTVSPropertyOp20
 70
     1
102
RTVSPropertyOp21
 70
     1
102
RTVSPropertyOp22
 70
     1
102
RTVSPropertyOp23
 70
     1
102
RTVSPropertyOp24
 70
     1
102
RTVSPropertyOp25
 70
     1
102
RTVSPropertyOp26
 70
     1
102
RTVSPropertyOp27
 70
     1
102
RTVSPropertyOp28
 70
     1
102
RTVSPropertyOp29
 70
     1
102
RTVSPropertyOp30
 70
     1
102
RTVSPropertyOp31
 70
     1
102
RTVSPropertyOp32
 70
     1
  0
XRECORD
  5
212
102
{ACAD_REACTORS
330
211
102
}
330
211
100
AcDbXrecord
280
     1
102
RTVSPropertyOp0
 70
     1
102
RTVSPropertyOp1
 70
     1
102
RTVSPropertyOp2
 70
     1
102
RTVSPropertyOp3
 70
     1
102
RTVSPropertyOp4
 70
     1
102
RTVSPropertyOp5
 70
     1
102
RTVSPropertyOp6
 70
     1
102
RTVSPropertyOp7
 70
     1
102
RTVSPropertyOp8
 70
     1
102
RTVSPropertyOp9
 70
     1
102
RTVSPropertyOp10
 70
     1
102
RTVSPropertyOp11
 70
     1
102
RTVSPropertyOp12
 70
     1
102
RTVSPropertyOp13
 70
     1
102
RTVSPropertyOp14
 70
     1
102
RTVSPropertyOp15
 70
     1
102
RTVSPropertyOp16
 70
     1
102
RTVSPropertyOp17
 70
     1
102
RTVSPropertyOp18
 70
     1
102
RTVSPropertyOp19
 70
     1
102
RTVSPropertyOp20
 70
     1
102
RTVSPropertyOp21
 70
     1
102
RTVSPropertyOp22
 70
     1
102
RTVSPropertyOp23
 70
     1
102
RTVSPropertyOp24
 70
     1
102
RTVSPropertyOp25
 70
     1
102
RTVSPropertyOp26
 70
     1
102
RTVSPropertyOp27
 70
     1
102
RTVSPropertyOp28
 70
     1
102
RTVSPropertyOp29
 70
     1
102
RTVSPropertyOp30
 70
     1
102
RTVSPropertyOp31
 70
     1
102
RTVSPropertyOp32
 70
     1
  0
XRECORD
  5
208
102
{ACAD_REACTORS
330
207
102
}
330
207
100
AcDbXrecord
280
     1
102
RTVSPropertyOp0
 70
     1
102
RTVSPropertyOp1
 70
     1
102
RTVSPropertyOp2
 70
     1
102
RTVSPropertyOp3
 70
     1
102
RTVSPropertyOp4
 70
     1
102
RTVSPropertyOp5
 70
     1
102
RTVSPropertyOp6
 70
     1
102
RTVSPropertyOp7
 70
     1
102
RTVSPropertyOp8
 70
     1
102
RTVSPropertyOp9
 70
     1
102
RTVSPropertyOp10
 70
     1
102
RTVSPropertyOp11
 70
     1
102
RTVSPropertyOp12
 70
     1
102
RTVSPropertyOp13
 70
     1
102
RTVSPropertyOp14
 70
     1
102
RTVSPropertyOp15
 70
     1
102
RTVSPropertyOp16
 70
     1
102
RTVSPropertyOp17
 70
     1
102
RTVSPropertyOp18
 70
     1
102
RTVSPropertyOp19
 70
     1
102
RTVSPropertyOp20
 70
     1
102
RTVSPropertyOp21
 70
     1
102
RTVSPropertyOp22
 70
     1
102
RTVSPropertyOp23
 70
     1
102
RTVSPropertyOp24
 70
     1
102
RTVSPropertyOp25
 70
     1
102
RTVSPropertyOp26
 70
     1
102
RTVSPropertyOp27
 70
     1
102
RTVSPropertyOp28
 70
     1
102
RTVSPropertyOp29
 70
     1
102
RTVSPropertyOp30
 70
     1
102
RTVSPropertyOp31
 70
     1
102
RTVSPropertyOp32
 70
     1
  0
XRECORD
  5
210
102
{ACAD_REACTORS
330
20F
102
}
330
20F
100
AcDbXrecord
280
     1
102
RTVSPropertyOp0
 70
     1
102
RTVSPropertyOp1
 70
     1
102
RTVSPropertyOp2
 70
     1
102
RTVSPropertyOp3
 70
     1
102
RTVSPropertyOp4
 70
     1
102
RTVSPropertyOp5
 70
     1
102
RTVSPropertyOp6
 70
     1
102
RTVSPropertyOp7
 70
     1
102
RTVSPropertyOp8
 70
     1
102
RTVSPropertyOp9
 70
     1
102
RTVSPropertyOp10
 70
     1
102
RTVSPropertyOp11
 70
     1
102
RTVSPropertyOp12
 70
     1
102
RTVSPropertyOp13
 70
     1
102
RTVSPropertyOp14
 70
     1
102
RTVSPropertyOp15
 70
     1
102
RTVSPropertyOp16
 70
     1
102
RTVSPropertyOp17
 70
     1
102
RTVSPropertyOp18
 70
     1
102
RTVSPropertyOp19
 70
     1
102
RTVSPropertyOp20
 70
     1
102
RTVSPropertyOp21
 70
     1
102
RTVSPropertyOp22
 70
     1
102
RTVSPropertyOp23
 70
     1
102
RTVSPropertyOp24
 70
     1
102
RTVSPropertyOp25
 70
     1
102
RTVSPropertyOp26
 70
     1
102
RTVSPropertyOp27
 70
     1
102
RTVSPropertyOp28
 70
     1
102
RTVSPropertyOp29
 70
     1
102
RTVSPropertyOp30
 70
     1
102
RTVSPropertyOp31
 70
     1
102
RTVSPropertyOp32
 70
     1
  0
ENDSEC
  0
EOF
